.
Авторизация | Регистрация
Хочешь лучшие торренты? Добавь свой email!
Добавить
» » Дорожные войны (2014) DVB от Deadmauvlad скачать через торрент бесплатно




    Дорожные войны (2014) DVB от Deadmauvlad скачать через торрент бесплатно

    Опубликовал: Админ | Дата: 27-02-2015, 11:10 | Просмотров: 295


    Детально о кино
    Русское название: Дорожные войны
    Создали в: 2011
    Категория жанра: Документальный
    Главный режиссер: Максим Володин, Сергей Трушкин

    Сюжет фильма:
    Документальный сериал Дорожные войны рассказывает о работе сотрудников ГИБДД. Программа основана на материале, снятом видеорегистраторами патрульных машин, уличными камерами наблюдения и случайными очевидцами. Также присутствуют и собственные репортажи от съемочной группы ДТВ, выезжающей на дежурство вместе с экипажами ГИБДД.



    Снималось в: Россия
    Время просмотра: 00:17:05
    Перевод текста: Не требуется

    Файл MPG
    Кодек для видео: MPEG2
    Качество фильма: DVB
    Информация о видео: MPEG 2, 720x576 (4:3), 25.000 fps, 4 578 Kbps (0.442 bit/pixel)
    Информация о звуке: MP2, 48.0 KHz, 1 ch, 128 Kbps, CBR (English)
    Релиз подготовил: Deadmauvlad
    MI
    Общее
    Идентификатор : 8 (0x8)
    Полное имя : D:Рипы выкладка DeadmauvladРипы готовыеDoroghnie.Voiny.DVB.Deadmauvlad.Efir.Ot.16.05.2014.ts
    Формат : MPEG-TS
    Размер файла : 617 Мбайт
    Продолжительность : 17 м.
    Режим общего битрейта : Постоянный
    Общий поток : 5000 Кбит/сек

    Видео
    Идентификатор : 2304 (0x900)
    Идентификатор меню : 1024 (0x400)
    Формат : MPEG Video
    Версия формата : Version 2
    Профиль формата : Main@Main
    Параметр BVOP формата : Да
    Параметр матрицы формата : Выборочная
    Параметр GOP формата : Variable
    Идентификатор кодека : 2
    Продолжительность : 17 м.
    Битрейт : 4624 Кбит/сек
    Максимальный битрейт : 4578 Кбит/сек
    Ширина : 720 пикселей
    Высота : 576 пикселей
    Соотношение сторон : 4:3
    Частота кадров : 25,000 кадров/сек
    Стандарт вещания : PAL
    Цветовое пространство : YUV
    Субдискретизация насыщенности : 4:2:0
    Битовая глубина : 8 бит
    Тип развёртки : Чересстрочная
    Порядок развёртки : Верхнее поле первое
    Метод сжатия : С потерями
    Бит/(Пиксели*Кадры) : 0.446
    Временной код первого кадра : 21:37:41:19
    Оригинал временного кода : Group of pictures t_head
    Размер потока : 570 Мбайт (92%)

    Аудио
    Идентификатор : 2305 (0x901)
    Идентификатор меню : 1024 (0x400)
    Формат : MPEG Audio
    Версия формата : Version 1
    Профиль формата : Layer 2
    Идентификатор кодека : 4
    Продолжительность : 17 м.
    Вид битрейта : Постоянный
    Битрейт : 128 Кбит/сек
    Каналы : 1 канал
    Частота : 48,0 КГц
    Метод сжатия : С потерями
    Задержка видео : -463 мс.
    Размер потока : 15,8 Мбайт (3%)

    Меню
    Идентификатор : 2306 (0x902)
    Идентификатор меню : 1024 (0x400)
    Продолжительность : 17 м.
    Список : 2304 (0x900) (MPEG Video) / 2305 (0x901) (MPEG Audio)
    Название сервиса : Encoded Video
    Поставщик сервиса : DiviCom Customer
    Тип сервиса : digital television

    Скриншоты для ознакомления

    Залил: DJ_V.K_TV
    Размер скачиваемого торрента: 617.01 MB (646985644 Bytes)

    Дорожные войны (2014) DVB от Deadmauvlad скачать через торрент бесплатно
    загрузка...
    Рейтинг →
     (голосов: 1, оценка 5/5, голосовать можно 1 раз )

    Другие торренты по теме:

  • Дорожные войны (2014) TVRip от Deadmauvlad
  • Дорожные войны (Эфир от 22.05) (2014) SATRip от Deadmauvlad скачать через торрент бесплатно
  • Дорожные войны (Эфир от 16.05) (2014) SATRip от Deadmauvlad скачать через торрент бесплатно
  • Дорожные войны (2014) DVB от Deadmauvlad скачать через торрент бесплатно
  • Дорожные войны [Новый сезон] [Эфир от 22.08.2014] скачать через торрент бесплатно
  • Дорожные войны [Новый сезон] [Эфир от 28.08.2014] скачать через торрент бесплатно
  • Дорожные войны [Новый сезон] [Эфир от 02.09.2014] скачать через торрент бесплатно
  • Дорожные войны [Новый сезон] [Эфир от 02.09.2014] скачать через торрент бесплатно


    • Комментарии (0):

      Информация

      Информация

        Посетители, находящиеся в группе Гости, не могут оставлять комментарии в данной новости.

        ↓ Меню



        ↓ Опрос

        А Вы добавили сайт в закладки?
        Да
        Не


        Top 10 за месяц (Передачи)