.
Авторизация | Регистрация
Хочешь лучшие торренты? Добавь свой email!
Добавить
» » Сделка с Ксенией Собчак (2014) WEB-DLRip от Deadmauvlad скачать торрент бесплатно




    Сделка с Ксенией Собчак (2014) WEB-DLRip от Deadmauvlad скачать торрент бесплатно

    Опубликовал: Админ | Дата: 27-02-2015, 11:09 | Просмотров: 636



    Наименование: Сделка с Ксенией Собчак
    Категория: Тв-Шоу, Викторина
    Год выпуска: 2014
    Время просмотра: 00:48:34
    Произведено: Россия, Пятница TV
    В главных ролях: Ксения Собчак


    Сюжет фильма:
    Нет для русского человека большей радости, чем сделать москвича. Поэтому мы назвали нашу программу Сделка. Пришло время москвичу держать ответ. Ответ на вопросы, которые вы зададите ему сами. Вы присылаете вопрос. Ксения Анатольевна Собчак в гипермаркете. Если москвич ответил правильно – он получает деньги за свои покупки обратно. Если нет, его покупки уходят автору вопроса.


    Файл
    Кодек для видео: XviD (7.3)
    Качество фильма: WEB-DLRip
    Информация о видео: 720x400 (1.80:1), 25 fps, XviD build 73 ~2006 kbps avg, 0.28 bit/pixel
    Информация о звуке: 48 kHz, AC3 Dolby Digital, 2/0 (L,R) ch, ~128 kbps

    MI
    Общее
    Полное имя : D:Рипы выкладка DeadmauvladСделка.с.Ксенией.Собчак.Выпуск № 30 .WEB-DLRip.Deadmauvlad.avi
    Формат : AVI
    Формат/Информация : Audio Video Interleave
    Размер файла : 745 Мбайт
    Продолжительность : 48 м.
    Общий поток : 2145 Кбит/сек
    Название фильма : Сделка.с.Ксенией.Собчак.Выпуск № 30 .WEB-DLRip.Deadmauvlad
    Режиссёр : Deadmauvlad
    Жанр : Викторина
    Программа кодирования : VirtualDubMod 1.5.10.3 | www.virtualdub-fr.org || (build 2550/release)
    Формат оригинала/Имя : ТВ Шоу
    Правообладатель : Goldenshara

    Видео
    Идентификатор : 0
    Формат : MPEG-4 Visual
    Профиль формата : Advanced Simple@L5
    Параметр BVOP формата : 2
    Параметр QPel формата : Да
    Параметр GMC формата : Без точки перехода
    Параметр матрицы формата : Default (MPEG)
    Идентификатор кодека : XVID
    Идентификатор кодека/Подсказка : XviD
    Продолжительность : 48 м.
    Битрейт : 2007 Кбит/сек
    Ширина : 720 пикселей
    Высота : 400 пикселей
    Соотношение сторон : 16:9
    Частота кадров : 25,000 кадров/сек
    Цветовое пространство : YUV
    Субдискретизация насыщенности : 4:2:0
    Битовая глубина : 8 бит
    Тип развёртки : Прогрессивная
    Метод сжатия : С потерями
    Бит/(Пиксели*Кадры) : 0.279
    Размер потока : 697 Мбайт (94%)
    Библиотека кодирования : XviD 73

    Аудио
    Идентификатор : 1
    Формат : AC-3
    Формат/Информация : Audio Coding 3
    Расширение режима : CM (complete main)
    Параметр Endianness формата : Big
    Идентификатор кодека : 2000
    Продолжительность : 48 м.
    Вид битрейта : Постоянный
    Битрейт : 128 Кбит/сек
    Каналы : 2 канала
    Расположение каналов : Front: L R
    Частота : 48,0 КГц
    Битовая глубина : 16 бит
    Метод сжатия : С потерями
    Размер потока : 44,5 Мбайт (6%)
    Выравнивание : Разделение по промежуткам
    Продолжительность промежутка : 40 мс. (1,00 видеокадр)
    Время предзагрузки промежутка : 500 мс.



    Скриншоты для ознакомления




    Релиз подготовил: Deadmauvlad
    Залил: DJ_V.K_TV
    Размер скачиваемого торрента: 745.14 MB (781340672 Bytes)

    Сделка с Ксенией Собчак (2014) WEB-DLRip от Deadmauvlad торрент скачать бесплатно
    загрузка...
    Рейтинг →
     (голосов: 1, оценка 3/5, голосовать можно 1 раз )

    Другие торренты по теме:

  • Сделка с дьяволом / The Covenant (2006) BDRip-AVC от potroks | D
  • Сделка с дьяволом / The Covenant (2006) HDRip от Scarabey | D
  • Сделка с дьяволом / The Covenant (2006) BDRip от Rulya74 скачать через торрент бесплатно
  • Сделка с дьяволом / The Covenant (2006) HDRip-AVC | D
  • Сделка с дьяволом / The Covenant (2006) WEB-DL 1080p | D | Open Matte
  • Сделка с дьяволом / The Covenant (2006) WEB-DLRip от Scarabey | Open Matte | D
  • Политика с Петром Толстым. Ассоциация Украина-ЕС. Сделка сорвалась (2013) SATRip от РиперАМ


    • Комментарии (0):

      Информация

      Информация

        Посетители, находящиеся в группе Гости, не могут оставлять комментарии в данной новости.

        ↓ Меню



        ↓ Опрос

        А Вы добавили сайт в закладки?
        Да
        Не


        Top 10 за месяц (Передачи)