.
Авторизация | Регистрация
Хочешь лучшие торренты? Добавь свой email!
Добавить
» » Выпускной бал в Кремле. Концерт (2013) DVB от Mydimka скачать торрент бесплатно




    Выпускной бал в Кремле. Концерт (2013) DVB от Mydimka скачать торрент бесплатно

    Опубликовал: Админ | Дата: 27-02-2015, 11:09 | Просмотров: 379

    Страна: Россия
    Жанр: Pop
    Продолжительность: 02:34:54
    Год выпуска: 2013 г.
    Описание: Третья всероссийская премия Выпускник - 2013 в Кремле! Красная ковровая дорожка, вручение заветных статуэток. Ты узнаешь, кто станет принцем и принцессой главного выпускного страны! Нюша, Градусы, Иракли, Доминик Джокер, Нервы и многие-многие другие. Ведущие: Лера Кудрявцева и Алексей Чумаков.

    Треклист: Требуется помощь.

    Источник: собственный рип

    Доп. информация: Релиз -


    Рип чистый. Без посторонних надписей. Выкладывается как есть.

    Качество: DVB
    Формат: MPG
    Видео кодек: MPG2
    Аудио кодек: MP2
    Видео: 720x576 @ 768x576 (4:3) 25.00fps 5 805 Kbps, 0.560 bit/pixel
    Аудио: MPEG Audio, 48000Hz, 2 channels, 192 Кбит/сек
    Скриншоты




    Скринлист



    MI

    code
    General
    ID : 1 (0x1)
    Complete name : D:ВыкладкаВыпускной бал в Кремле 2013 (Ю-ТВ) (2013, Pop, DVB) (MYDIMKA).ts
    Format : MPEG-TS
    File size : 6.79 GiB
    Duration : 2h 34mn
    Overall bit rate mode : Variable
    Overall bit rate : 6 277 Kbps

    Video
    ID : 201 (0xC9)
    Menu ID : 1 (0x1)
    Format : MPEG Video
    Format version : Version 2
    Format profile : Main@Main
    Format settings, BVOP : Yes
    Format settings, Matrix : Custom
    Format settings, GOP : M=3, N=24
    Codec ID : 2
    Duration : 2h 34mn
    Bit rate mode : Variable
    Bit rate : 5 773 Kbps
    Maximum bit rate : 15.0 Mbps
    Width : 720 pixels
    Height : 576 pixels
    Display aspect ratio : 4:3
    Frame rate : 25.000 fps
    Standard : PAL
    Color space : YUV
    Chroma subsampling : 4:2:0
    Bit depth : 8 bits
    Scan type : Interlaced
    Scan order : Top Field First
    Compression mode : Lossy
    Bits/(Pixel*Frame) : 0.557
    Time code of first frame : 00:00:00:00
    Time code source : Group of pictures t_head
    Stream size : 6.25 GiB (92%)

    Audio
    ID : 210 (0xD2)
    Menu ID : 1 (0x1)
    Format : MPEG Audio
    Format version : Version 1
    Format profile : Layer 2
    Codec ID : 3
    Duration : 2h 34mn
    Bit rate mode : Constant
    Bit rate : 192 Kbps
    Channel(s) : 2 channels
    Sampling rate : 48.0 KHz
    Compression mode : Lossy
    Delay relative to video : 23ms
    Stream size : 213 MiB (3%)
    Language : Russian
    /code

    Залил: DGEKIGAN
    Размер: 6.79 GB (7292255484 Bytes)
    загрузка...
    Рейтинг →
     (голосов: 1, оценка 3/5, голосовать можно 1 раз )

    Другие торренты по теме:

  • Выпускной бал в Кремле. Концерт (2013) SATRip от Mydimka
  • Выпускной бал в Крокус Сити Холле (2013) DVB от Mydimka
  • Выпускной бал в Кремле. Выпускник 2014 (2014) SATRip от Files-x
  • Выпускной бал в Кремле (2017) WEBRip 720p от Files-х


    • Комментарии (0):

      Информация

      Информация

        Посетители, находящиеся в группе Гости, не могут оставлять комментарии в данной новости.

        ↓ Меню



        ↓ Опрос

        А Вы добавили сайт в закладки?
        Да
        Не


        Top 10 за месяц (Передачи)