.
Авторизация | Регистрация
Хочешь лучшие торренты? Добавь свой email!
Добавить




Пинская флотилия (2005) SATRip скачать торрент бесплатно

Опубликовал: Админ | Дата: 18-11-2017, 11:00 | Просмотров: 0



Детально о кино
Русское название: Пинская флотилия
Создали в: 2005
Категория жанра: Документальный, история, война, флот
Главный режиссер: Денис Скворцов

Сюжет фильма

В истории Великой Отечественной войны, пожалуй, самой малоизученной страницей является речная флотилия. В условиях белорусских болот Пинская флотилия под командованием контр-адмирала Дмитрия Рогачева оперативно и внезапно доставляла десантников, переправляла тысячи солдат в недоступные районы. Герой фильма Чильникин Василий Петрович - житель города Пинска, который во время войны был командиром расчета батареи.
Снималось в: Беларусь
Время просмотра: 00: 38: 24
Перевод текста: Не требуется
Файл
Кодек для видео: XviD/AC3
Качество фильма: SATRip
Информация о видео: Xvid, 704x528, ~1800 Kbps
Информация о звуке: AC3, 2 ch, 192 Kbps
Скриншоты
MI
Пинская.флотилия.2005.XviD.SATRip.alf62.avi
Формат : AVI
Формат/Информация : Audio Video Interleave
Размер файла : 550 Мбайт
Продолжительность : 38 м.
Общий поток : 2001 Кбит/сек
Программа кодирования : VirtualDubMod 1.5.10.3 | www.virtualdub-fr.org || (build 2550/release)
Библиотека кодирования : VirtualDubMod build 2550/release
Видео
Идентификатор : 0
Формат : MPEG-4 Visual
Профиль формата : Advanced Simple@L5
Параметр BVOP формата : 2
Параметр QPel формата : Нет
Параметр GMC формата : Без точки перехода
Параметр матрицы формата : Default (MPEG)
Идентификатор кодека : XVID
Идентификатор кодека/Подсказка : XviD
Продолжительность : 38 м.
Битрейт : 1800 Кбит/сек
Ширина : 704 пикселя
Высота : 528 пикселей
Соотношение сторон : 4: 3
Частота кадров : 25, 000 кадров/сек
Цветовое пространство : YUV
Субдискретизация насыщенности : 4: 2: 0
Битовая глубина : 8 бит
Тип развёртки : Прогрессивная
Метод сжатия : С потерями
Бит/(Пиксели*Кадры) : 0.194
Размер потока : 494 Мбайт (90%)
Библиотека кодирования : XviD 73
Аудио
Идентификатор : 1
Формат : AC-3
Формат/Информация : Audio Coding 3
Расширение режима : CM (complete main)
Параметр Endianness формата : Big
Идентификатор кодека : 2000
Продолжительность : 38 м.
Вид битрейта : Постоянный
Битрейт : 192 Кбит/сек
Каналы : 2 канала
Расположение каналов : Front: L R
Частота : 48, 0 КГц
Битовая глубина : 16 бит
Метод сжатия : С потерями
Размер потока : 52, 7 Мбайт (10%)
Выравнивание : Разделение по промежуткам
Продолжительность промежутка : 40 мс. (1, 00 видеокадр)
Время предзагрузки промежутка : 500 мс.

Размер скачиваемого торрента: 549.68 MB (576380928 Bytes)

Пинская флотилия (2005) SATRip
загрузка...
Рейтинг →
 (голосов: 1, оценка 5/5, голосовать можно 1 раз )

Другие торренты по теме:



    Комментарии (0):

    Информация

    Информация

      Посетители, находящиеся в группе Гости, не могут оставлять комментарии в данной новости.

      ↓ Меню



      ↓ Опрос

      А Вы добавили сайт в закладки?
      Да
      Не


      Top 10 за месяц (Передачи)