.
Авторизация | Регистрация
Хочешь лучшие торренты? Добавь свой email!
Добавить
» » Александр Третий. Сильный, державный... (2017) HDTVRip скачать торрент бесплатно




    Александр Третий. Сильный, державный... (2017) HDTVRip скачать торрент бесплатно

    Опубликовал: Админ | Дата: 8-11-2017, 11:00 | Просмотров: 0



    Детально о кино
    Русское название: Александр Третий. Сильный, державный...
    Создали в: 2017
    Категория жанра: Документальный
    Главный режиссер: Галина Огурная

    Сюжет фильма

    У России только два союзника: ее армия и флот – это крылатое выражение императора Александра Третьего актуально и сегодня. За все годы его правления Россия не вела войн, и неслучайно Александр Третий остался в памяти отечества как Царь-миротворец. Именно он пресек на долгие годы терроризм в стране. Главным принципом его правления стал приоритет национальных интересов России. Александр Третий претворил в жизнь политику протекционизма отечественному производству, возродил Черноморский флот, заложил Транссибирскую магистраль, которой мы пользуемся до сих пор. Именно при нем произошло поразившее весь мир экономическое чудо – страна по темпам промышленного роста вышла в мировые лидеры. Этого ли недостаточно для нашей благодарной памяти об этом великом человеке?!
    Снималось в:
    Время просмотра: 00: 51: 21
    Файл
    Кодек для видео: XviD
    Качество фильма: HDTVRip
    Информация о видео: 720x400, 1835 Кбит/с, 25 кадр/с
    Информация о звуке: AC3, 2 канала, 192 Кбит/с
    MI
    Общее
    Полное имя : D: Александр.Третий.Сильный.державный.2017.HDTVRip-ylnian.avi
    Формат : AVI
    Формат/Информация : Audio Video Interleave
    Размер файла : 748 Мбайт
    Продолжительность : 51 м. 21 с.
    Общий поток : 2036 Кбит/сек
    Программа кодирования : VirtualDubMod 1.5.10.2 (build 2540/release)
    Библиотека кодирования : VirtualDubMod build 2540/release
    Видео
    Идентификатор : 0
    Формат : MPEG-4 Visual
    Профиль формата : Advanced Simple@L5
    Параметр BVOP формата : 1
    Параметр QPel формата : Нет
    Параметр GMC формата : Без точки перехода
    Параметр матрицы формата : Default (MPEG)
    Идентификатор кодека : XVID
    Идентификатор кодека/Подсказка : XviD
    Продолжительность : 51 м. 21 с.
    Битрейт : 1835 Кбит/сек
    Ширина : 720 пикселей
    Высота : 400 пикселей
    Соотношение сторон : 16: 9
    Частота кадров : 25, 000 кадров/сек
    Цветовое пространство : YUV
    Субдискретизация насыщенности : 4: 2: 0
    Битовая глубина : 8 бит
    Тип развёртки : Прогрессивная
    Метод сжатия : С потерями
    Бит/(Пиксели*Кадры) : 0.255
    Размер потока : 674 Мбайт (90%)
    Библиотека кодирования : XviD 67
    Аудио
    Идентификатор : 1
    Формат : AC-3
    Формат/Информация : Audio Coding 3
    Параметр Endianness формата : Big
    Идентификатор кодека : 2000
    Продолжительность : 51 м. 21 с.
    Вид битрейта : Постоянный
    Битрейт : 192 Кбит/сек
    Каналы : 2 канала
    Расположение каналов : Front: L R
    Частота : 48, 0 КГц
    Частота кадров : 31, 250 кадров/сек (1536 spf)
    Битовая глубина : 16 бит
    Метод сжатия : С потерями
    Размер потока : 70, 5 Мбайт (9%)
    Выравнивание : Разделение по промежуткам
    Продолжительность промежутка : 40 мс. (1, 00 видеокадр)
    Время предзагрузки промежутка : 500 мс.
    Скриншоты

    Размер скачиваемого торрента: 747.98 MB (784316416 Bytes)

    Александр Третий. Сильный, державный... (2017) HDTVRip
    загрузка...
    Рейтинг →
     (голосов: 1, оценка 4/5, голосовать можно 1 раз )

    Другие торренты по теме:

  • Александр Третий и Лариса Антонова - Мне говорят,что нужно уезжать скачать через торрент бесплатно
  • Александр Третий. Сильный, державный... (2017) HDTV 1080i
  • Хиты СССР (4 в 1): Третий удар, Рядовой Александр Матросов, Фронт, Малахов курган / 1943-1948 / РУ / DVD-9


    • Комментарии (0):

      Информация

      Информация

        Посетители, находящиеся в группе Гости, не могут оставлять комментарии в данной новости.

        ↓ Меню



        ↓ Опрос

        А Вы добавили сайт в закладки?
        Да
        Не


        Top 10 за месяц (Передачи)