.
Авторизация | Регистрация
Хочешь лучшие торренты? Добавь свой email!
Добавить
» » Вилки вместо ножей / Forks Over Knives (2011) WEB-DLRip 720p | L2 скачать торрент бесплатно




    Вилки вместо ножей / Forks Over Knives (2011) WEB-DLRip 720p | L2 скачать торрент бесплатно

    Опубликовал: Админ | Дата: 19-10-2017, 11:00 | Просмотров: 0



    Детально о кино
    Русское название: Вилки вместо ножей
    Русское название в мировом прокате: Forks Over Knives
    Создали в: 2011
    Категория жанра: Документальный
    Главный режиссёр: Ли Фалкерсон

    Сюжет фильма

    Что случилось с нами? Несмотря на развитие передовых медицинских технологий, сегодня мы чувствуем себя всё хуже и хуже. Резко увеличились случаи заболевания диабетом, особенно среди молодого поколения. Сердечные и онкологические заболевания являются главными причинами смертности в мире. И это несмотря на те миллиарды, что тратятся на борьбу с ними. Есть ли единое решение всех этих проблем? Есть — утверждают авторы фильма Вилки вместо ножей, и решение столь же всеобъемлющее, сколь и простое. Причём настолько, что многие из нас его просто не воспринимают всерьёз.

    Снималось в: США
    Время просмотра: 01: 36: 00
    Перевод текста: Любительский двухголосый
    Файл
    Кодек для видео: MPEG-4 AVC
    Качество фильма: WEB-DLRip 720p
    Информация о видео: 1280x720, 6000 кбит/с, 25 кадр/с
    Информация о звуке: AAC, 2 канала, 128 кбит/с
    Скриншоты

    MI
    General
    Complete name : ВИЛКИ ВМЕСТО НОЖЕЙ.mp4
    Format : MPEG-4
    Format profile : Base Media
    Codec ID : isom
    File size : 4.02 GiB
    Duration : 1h 36mn
    Overall bit rate : 5 988 Kbps
    Writing application : Lavf55.19.104
    Video
    ID : 1
    Format : AVC
    Format/Info : Advanced Video Codec
    Format profile : Baseline@L1.3
    Format settings, CABAC : No
    Format settings, ReFrames : 2 frames
    Codec ID : avc1
    Codec ID/Info : Advanced Video Coding
    Duration : 1h 36mn
    Bit rate : 6 000 Kbps
    Width : 1 280 pixels
    Height : 720 pixels
    Display aspect ratio : 16: 9
    Frame rate mode : Constant
    Frame rate : 25.000 fps
    Color space : YUV
    Chroma subsampling : 4: 2: 0
    Bit depth : 8 bits
    Scan type : Progressive
    Bits/(Pixel*Frame) : 0.260
    Stream size : 3.93 GiB (98%)
    Writing library : x264 core 140 r2377 1ca7bb9
    Encoding settings : cabac=0/ref=2/deblock=1: 0: 0/analyse=0x1: 0x111/me=umh/subme=6/psy=1/psy_rd=1.00: 0.00/mixed_ref=1/me_range=16/chroma_me=1/trellis=0/8x8dct=0/cqm=0/deadzone=21, 11/fast_pskip=1/chroma_qp_offset=-2/threads=12/lookahead_threads=2/sliced_threads=0/nr=0/decimate=1/interlaced=0/bluray_compat=0/constrained_intra=0/bframes=0/weightp=0/keyint=250/keyint_min=25/scenecut=40/intra_refresh=0/rc_lookahead=40/rc=abr/mbtree=1/bitrate=6000/ratetol=1.0/qcomp=0.60/qpmin=0/qpmax=69/qpstep=4/ip_ratio=1.40/aq=1: 1.00
    Audio
    ID : 2
    Format : AAC
    Format/Info : Advanced Audio Codec
    Format profile : LC
    Codec ID : 40
    Duration : 1h 33mn
    Bit rate mode : Constant
    Bit rate : 128 Kbps
    Channel(s) : 2 channels
    Channel positions : Front: L R
    Sampling rate : 44.1 KHz
    Compression mode : Lossy
    Stream size : 85.3 MiB (2%)

    Размер скачиваемого торрента: 4.02 GB (4312170206 Bytes)

    Вилки вместо ножей/Forks Over Knives (2011) WEB-DLRip 720p | L2
    загрузка...
    Рейтинг →
     (голосов: 1, оценка 5/5, голосовать можно 1 раз )

    Другие торренты по теме:

  • Вилки вместо ножей / Forks Over Knives (2011) WEB-DLRip-AVC | L2


    • Комментарии (0):

      Информация

      Информация

        Посетители, находящиеся в группе Гости, не могут оставлять комментарии в данной новости.

        ↓ Меню



        ↓ Опрос

        А Вы добавили сайт в закладки?
        Да
        Не


        Top 10 за месяц (Передачи)