.
Авторизация | Регистрация
Хочешь лучшие торренты? Добавь свой email!
Добавить
» » Дэвид Боуи: Последние Пять Лет / David Bowie: The Last Five Years (2017) HDTVRip-AVC | Первый Канал скачать торрент бесплатно




    Дэвид Боуи: Последние Пять Лет / David Bowie: The Last Five Years (2017) HDTVRip-AVC | Первый Канал скачать торрент бесплатно

    Опубликовал: Админ | Дата: 12-10-2017, 11:00 | Просмотров: 0



    Дэвид Боуи: Последние Пять Лет/David Bowie: The Last Five Years

    Создали в: 2017
    Снималось в: Великобритания | A BBC Studios production
    Телеканал: Первый Канал HD
    Категория жанра: Документальный
    Время просмотра: 0: 59: 14
    Перевод текста: Профессиональный (многоголосый закадровый) | по заказу Первый Канал
    Автор сценария и режиссер: Френсис Уотли/Francis Whately
    Описание: Лента режиссера Френсиса Уотли посвящена последним пяти годам жизни Дэвида Боуи. В центре внимания — альбомы The Next Day и Blackstar, а также мюзикл Лазарь. Именно в этот период жизни музыканта публика обращала на него максимальное внимание. В фильме показано, как Боуи в своей последней работе вернулся к темам, которых касался на протяжении всего своего творческого пути. Картина содержит интервью с музыкантами, дизайнерами и режиссерами клипов, которые в это время работали с Боуи.

    Автор рипа: lrn
    Автор записи: Alexin29
    Сэмпл: sendfile
    Тип релиза: HDTVRip-AVC
    Контейнер: MKV
    Информация о видео: 1024x576 (16: 9), 25, 000 fps, H264, ~1500 kbps avg, ~0.102 bit/pixel
    Информация о звуке: 48 kHz, AC3 Dolby Digital, 3/2 (L, C, R, l, r) + LFE ch, ~384.00 kbps avg
    MediaInfo
    General
    Unique ID : 172051827458102768903803075902454856233 (0x816FFA05A80D465BBC4E87B68D3B7A29)
    Complete name : David.Bowie.The.Last.Five.Years.2017.HDTVRip-AVC.x264-RUS-lrn.mkv
    Format : Matroska
    Format version : Version 4/Version 2
    File size : 799 MiB
    Duration : 59 min 14 s
    Overall bit rate : 1 886 kb/s
    Movie name : David.Bowie.The.Last.Five.Years.2017.HDTVRip-AVC.x264-RUS-lrn
    Encoded date : UTC 2010-02-22 21: 41: 31
    Writing application : mkvmerge v5.9.0 (;On The Loose;) built on Dec 9 2012 15: 37: 01
    Writing library : libebml v1.3.0 + libmatroska v1.4.0
    Video
    ID : 1
    Format : AVC
    Format/Info : Advanced Video Codec
    Format profile : High@L4.1
    Format settings : CABAC/8 Ref Frames
    Format settings, CABAC : Yes
    Format settings, RefFrames : 8 frames
    Codec ID : V_MPEG4/ISO/AVC
    Duration : 59 min 14 s
    Bit rate : 1 500 kb/s
    Width : 1 024 pixels
    Height : 576 pixels
    Display aspect ratio : 16: 9
    Frame rate mode : Constant
    Frame rate : 25.000 FPS
    Color space : YUV
    Chroma subsampling : 4: 2: 0
    Bit depth : 8 bits
    Scan type : Progressive
    Bits/(Pixel*Frame) : 0.102
    Stream size : 620 MiB (78%)
    Writing library : x264 core 142 r2479 dd79a61
    Encoding settings : cabac=1/ref=8/deblock=1: -3: -3/analyse=0x3: 0x133/me=umh/subme=9/psy=1/psy_rd=1.00: 0.00/mixed_ref=1/me_range=32/chroma_me=1/trellis=2/8x8dct=1/cqm=0/deadzone=21, 11/fast_pskip=1/chroma_qp_offset=-2/threads=12/lookahead_threads=2/sliced_threads=0/nr=0/decimate=1/interlaced=0/bluray_compat=0/constrained_intra=0/bframes=8/b_pyramid=2/b_adapt=2/b_bias=0/direct=3/weightb=1/open_gop=0/weightp=2/keyint=250/keyint_min=25/scenecut=40/intra_refresh=0/rc_lookahead=50/rc=2pass/mbtree=1/bitrate=1500/ratetol=1.0/qcomp=0.60/qpmin=0/qpmax=69/qpstep=4/cplxblur=20.0/qblur=0.5/vbv_maxrate=62500/vbv_bufsize=78125/nal_hrd=none/filler=0/ip_ratio=1.40/aq=1: 1.00
    Default : Yes
    Forced : No
    Color range : Limited
    Color primaries : BT.709
    Transfer characteristics : BT.709
    Matrix coefficients : BT.709
    Audio
    ID : 2
    Format : AC-3
    Format/Info : Audio Coding 3
    Format settings, Endianness : Big
    Codec ID : A_AC3
    Duration : 59 min 14 s
    Bit rate mode : Constant
    Bit rate : 384 kb/s
    Channel(s) : 6 channels
    Channel positions : Front: L C R, Side: L R, LFE
    Sampling rate : 48.0 kHz
    Frame rate : 31.250 FPS (1536 SPF)
    Bit depth : 16 bits
    Compression mode : Lossy
    Delay relative to video : -5 ms
    Stream size : 163 MiB (20%)
    Language : Russian
    Service kind : Complete Main
    Default : No
    Forced : No
    x264 log
    raw info: 1024x576p 1: 1 @ 25/1 fps (cfr)
    x264 info: using SAR=1/1
    x264 info: using cpu capabilities: MMX2 SSE2Fast SSSE3 SSE4.2 AVX
    x264 info: profile High, level 4.1
    x264 info: frame I: 666 Avg QP: 16.29 size: 50311
    x264 info: frame P: 23403 Avg QP: 19.46 size: 14471
    x264 info: frame B: 64793 Avg QP: 21.65 size: 4542
    x264 info: consecutive B-frames: 2.8% 4.5% 6.3% 65.8% 7.7% 7.1% 1.7% 3.3% 0.8%
    x264 info: mb I I16..4: 14.5% 70.3% 15.1%
    x264 info: mb P I16..4: 5.4% 12.7% 0.8% P16..4: 42.9% 11.8% 9.4% 0.3% 0.1% skip: 16.6%
    x264 info: mb B I16..4: 0.4% 1.3% 0.1% B16..8: 32.4% 5.8% 1.1% direct: 5.0% skip: 53.9% L0: 42.6% L1: 48.3% BI: 9.1%
    x264 info: 8x8 transform intra: 68.8% inter: 75.5%
    x264 info: direct mvs spatial: 97.1% temporal: 2.9%
    x264 info: coded y, uvDC, uvAC intra: 56.3% 58.7% 23.1% inter: 15.8% 18.7% 0.8%
    x264 info: i16 v, h, dc, p: 51% 9% 6% 34%
    x264 info: i8 v, h, dc, ddl, ddr, vr, hd, vl, hu: 12% 8% 12% 8% 12% 13% 11% 12% 12%
    x264 info: i4 v, h, dc, ddl, ddr, vr, hd, vl, hu: 15% 9% 5% 9% 13% 14% 12% 11% 12%
    x264 info: i8c dc, h, v, p: 40% 23% 21% 16%
    x264 info: Weighted P-Frames: Y: 5.6% UV: 2.5%
    x264 info: ref P L0: 51.8% 10.2% 16.7% 5.9% 4.8% 4.0% 3.6% 2.5% 0.4% 0.0%
    x264 info: ref B L0: 78.2% 10.6% 4.9% 2.5% 1.9% 1.3% 0.7%
    x264 info: ref B L1: 95.1% 4.9%
    x264 info: kb/s: 1499.95
    encoded 88862 frames, 23.42 fps, 1499.95 kb/s
    Скриншоты

    Размер скачиваемого торрента: 799.01 MB (837818011 Bytes)

    Дэвид Боуи: Последние Пять Лет/David Bowie: The Last Five Years (2017) HDTVRip-AVC | Первый Канал
    загрузка...
    Рейтинг →
     (голосов: 1, оценка 5/5, голосовать можно 1 раз )

    Другие торренты по теме:

  • Дэвид Дейда - Путь супермужчины (2012) PDF
  • Дэвид Дэйром - Ножи. Искусство и дизайн современных ножей (2006) PDF
  • Лори Эксель, Джон Бетдорф, Дэвид Броммер и др. - Искусство фотографии: сила композиции (2011) PDF
  • Митчелл Дэвид - Облачный атлас (2013) MP3
  • Дэвид Карп - Хитрости Windows 7. Для профессионалов (2011) PDF
  • Дэвид Митчелл - Облачный атлас (2012) FB2, TXT
  • Грегори Дэвид Робертс - Шантарам / Gregory David Roberts (2010) FB2, PDF, DOC
  • Дэвид Дональд - Американские военные самолеты Второй мировой войны (2002) PDF


    • Комментарии (0):

      Информация

      Информация

        Посетители, находящиеся в группе Гости, не могут оставлять комментарии в данной новости.

        ↓ Меню



        ↓ Опрос

        А Вы добавили сайт в закладки?
        Да
        Не


        Top 10 за месяц (Передачи)