.
Авторизация | Регистрация
Хочешь лучшие торренты? Добавь свой email!
Добавить
» » Стинг: Свободный Человек / Sting: a Free Man (2017) HDTVRip-AVC | Первый Канал скачать торрент бесплатно




    Стинг: Свободный Человек / Sting: a Free Man (2017) HDTVRip-AVC | Первый Канал скачать торрент бесплатно

    Опубликовал: Админ | Дата: 3-10-2017, 11:01 | Просмотров: 0



    Стинг: Свободный Человек/Sting: a Free Man

    Создали в: 2017
    Снималось в: Франция | ARTE France | Terminal 9 Studios
    Телеканал: Первый Канал HD
    Категория жанра: Документальный
    Время просмотра: 0: 55: 29
    Перевод текста: Профессиональный (многоголосый закадровый) | по заказу Первый Канал
    Автор сценария и режиссер: Жюли Вей/Julie Veille
    Описание: Картина подробно рассказывает о жизни одного из наиболее влиятельных музыкантов современности, за плечами которого 100 миллионов проданных альбомов, 16 премий Грэмми и включение в Зал славы рок-н-ролла. Тем не менее о самом Стинге известно не так уж и много. За внешностью рок-звезды скрывается интеллигентный и ранимый человек, для которого искусство - это средство выражения своего мира и возможность справляться с внутренними противоречиями.
    Эта картина посредством эксклюзивных интервью с такими звездами как итальянский рокер Дзуккеро, легенда британского рока Боб Гелдоф и американский продюсер will.i.am и другими предоставляет уникальную возможность узнать о музыканте больше.
    Автор рипа: lrn
    Автор записи: Alexin29
    Сэмпл: sendfile
    Тип релиза: HDTVRip-AVC
    Контейнер: MKV
    Информация о видео: 1024x576 (16: 9), 25, 000 fps, H264, ~1500 kbps avg, ~0.102 bit/pixel
    Информация о звуке: 48 kHz, AC3 Dolby Digital, 3/2 (L, C, R, l, r) + LFE ch, ~384.00 kbps avg
    MediaInfo
    General
    Unique ID : 212733062370243803320839202868917873966 (0xA00AE5C26DE3B5EE895EC7FF5036AD2E)
    Complete name : Sting.a.Free.Man.2017.HDTVRip-AVC.x264-RUS-lrn.mkv
    Format : Matroska
    Format version : Version 4/Version 2
    File size : 748 MiB
    Duration : 55 min 29 s
    Overall bit rate : 1 885 kb/s
    Movie name : Sting.a.Free.Man.2017.HDTVRip-AVC.x264-RUS-lrn
    Encoded date : UTC 2010-02-22 21: 41: 31
    Writing application : mkvmerge v5.9.0 (;On The Loose;) built on Dec 9 2012 15: 37: 01
    Writing library : libebml v1.3.0 + libmatroska v1.4.0
    Video
    ID : 1
    Format : AVC
    Format/Info : Advanced Video Codec
    Format profile : High@L4.1
    Format settings : CABAC/8 Ref Frames
    Format settings, CABAC : Yes
    Format settings, RefFrames : 8 frames
    Codec ID : V_MPEG4/ISO/AVC
    Duration : 55 min 29 s
    Bit rate : 1 500 kb/s
    Width : 1 024 pixels
    Height : 576 pixels
    Display aspect ratio : 16: 9
    Frame rate mode : Constant
    Frame rate : 25.000 FPS
    Color space : YUV
    Chroma subsampling : 4: 2: 0
    Bit depth : 8 bits
    Scan type : Progressive
    Bits/(Pixel*Frame) : 0.102
    Stream size : 581 MiB (78%)
    Writing library : x264 core 148 r2744 b97ae06
    Encoding settings : cabac=1/ref=8/deblock=1: -3: -3/analyse=0x3: 0x133/me=umh/subme=9/psy=1/psy_rd=1.00: 0.00/mixed_ref=1/me_range=32/chroma_me=1/trellis=2/8x8dct=1/cqm=0/deadzone=21, 11/fast_pskip=1/chroma_qp_offset=-2/threads=12/lookahead_threads=2/sliced_threads=0/nr=0/decimate=1/interlaced=0/bluray_compat=0/constrained_intra=0/bframes=8/b_pyramid=2/b_adapt=2/b_bias=0/direct=3/weightb=1/open_gop=0/weightp=2/keyint=250/keyint_min=25/scenecut=40/intra_refresh=0/rc_lookahead=50/rc=2pass/mbtree=1/bitrate=1500/ratetol=1.0/qcomp=0.60/qpmin=0/qpmax=69/qpstep=4/cplxblur=20.0/qblur=0.5/vbv_maxrate=62500/vbv_bufsize=78125/nal_hrd=none/filler=0/ip_ratio=1.40/aq=1: 1.00
    Default : Yes
    Forced : No
    Statistics Tags Issue : mkvmerge v10.0.0 (;To Drown In You;) 64bit 2017-10-01 14: 57: 52/mkvmerge v5.9.0 (;On The Loose;) built on Dec 9 2012 15: 37: 01 2010-02-22 21: 41: 31
    FromStats_BitRate : 1499435
    FromStats_Duration : 00: 55: 29.880000000
    FromStats_FrameCount : 83247
    FromStats_StreamSize : 624117578
    Audio
    ID : 2
    Format : AC-3
    Format/Info : Audio Coding 3
    Format settings, Endianness : Big
    Codec ID : A_AC3
    Duration : 55 min 29 s
    Bit rate mode : Constant
    Bit rate : 384 kb/s
    Channel(s) : 6 channels
    Channel positions : Front: L C R, Side: L R, LFE
    Sampling rate : 48.0 kHz
    Frame rate : 31.250 FPS (1536 SPF)
    Bit depth : 16 bits
    Compression mode : Lossy
    Delay relative to video : 150 ms
    Stream size : 152 MiB (20%)
    Language : Russian
    Service kind : Complete Main
    Default : Yes
    Forced : No
    x264 log
    raw info: 1024x576p 1: 1 @ 25/1 fps (cfr)
    x264 info: using SAR=1/1
    x264 info: using cpu capabilities: MMX2 SSE2Fast SSSE3 SSE4.2 AVX
    x264 info: profile High, level 4.1
    x264 info: frame I: 584 Avg QP: 16.54 size: 48698
    x264 info: frame P: 21150 Avg QP: 19.55 size: 16155
    x264 info: frame B: 61513 Avg QP: 22.07 size: 4129
    x264 info: consecutive B-frames: 1.9% 3.5% 8.0% 61.9% 10.3% 10.4% 2.3% 1.1% 0.7%
    x264 info: mb I I16..4: 15.4% 71.7% 12.9%
    x264 info: mb P I16..4: 4.1% 9.7% 0.8% P16..4: 45.3% 13.5% 10.9% 0.4% 0.1% skip: 15.2%
    x264 info: mb B I16..4: 0.4% 0.8% 0.1% B16..8: 36.0% 5.9% 1.1% direct: 4.7% skip: 51.1% L0: 44.1% L1: 45.6% BI: 10.4%
    x264 info: 8x8 transform intra: 66.6% inter: 74.7%
    x264 info: direct mvs spatial: 97.9% temporal: 2.1%
    x264 info: coded y, uvDC, uvAC intra: 53.9% 64.2% 25.5% inter: 14.3% 21.7% 1.0%
    x264 info: i16 v, h, dc, p: 31% 16% 7% 46%
    x264 info: i8 v, h, dc, ddl, ddr, vr, hd, vl, hu: 13% 9% 11% 8% 11% 13% 12% 11% 12%
    x264 info: i4 v, h, dc, ddl, ddr, vr, hd, vl, hu: 14% 11% 5% 8% 14% 14% 13% 10% 12%
    x264 info: i8c dc, h, v, p: 37% 25% 20% 18%
    x264 info: Weighted P-Frames: Y: 5.5% UV: 3.2%
    x264 info: ref P L0: 50.5% 10.8% 16.3% 5.9% 5.3% 4.2% 4.1% 2.8% 0.1% 0.0%
    x264 info: ref B L0: 77.4% 10.6% 4.8% 2.8% 2.1% 1.6% 0.8%
    x264 info: ref B L1: 96.0% 4.0%
    x264 info: kb/s: 1499.43
    encoded 83247 frames, 26.88 fps, 1499.43 kb/s
    Скриншоты

    Размер скачиваемого торрента: 748.28 MB (784626269 Bytes)

    Стинг: Свободный Человек/Sting: a Free Man (2017) HDTVRip-AVC | Первый Канал
    загрузка...
    Рейтинг →
     (голосов: 1, оценка 4/5, голосовать можно 1 раз )

    Другие торренты по теме:



      Комментарии (0):

      Информация

      Информация

        Посетители, находящиеся в группе Гости, не могут оставлять комментарии в данной новости.

        ↓ Меню



        ↓ Опрос

        А Вы добавили сайт в закладки?
        Да
        Не


        Top 10 за месяц (Передачи)