.
Авторизация | Регистрация
Хочешь лучшие торренты? Добавь свой email!
Добавить
» » Дмитрий Маликов - Интервью (2017) HDTVRip скачать торрент бесплатно




    Дмитрий Маликов - Интервью (2017) HDTVRip скачать торрент бесплатно

    Опубликовал: Админ | Дата: 18-09-2017, 11:00 | Просмотров: 0




    Актеры
    Дмитрий Маликов
    Категория жанра: Интервью
    Создали в: 2017
    Время просмотра: 00: 39: 16

    Описание фильма
    На вопросы Натальи Синдеевой ответил народный артист Российской Федерации Дмитрий Маликов
    Доп. информация: В видео присутствует текстовая реклама, остальная реклама удалена.
    Тип видео: AVI
    Качество фильма: HDTVRip
    Информация о видео кодек: DIVX
    Информация о звуке кодек: MP3
    Информация о видео: DIVX, 720 x 400, ~1 300 Kbps, 25fps
    Информация о звуке: MP3, 2 ch, 128 Kbps, 48000Hz
    MedaInfo
    Malikov_16.09.17.avi
    Format : AVI
    Format/Info : Audio Video Interleave
    File size : 409 MiB
    Duration : 39mn 16s
    Overall bit rate : 1 456 Kbps
    Video
    ID : 0
    Format : MPEG-4 Visual
    Format profile : Advanced Simple@L4
    Format settings, BVOP : 2
    Format settings, QPel : No
    Format settings, GMC : No warppoints
    Format settings, Matrix : Default (H.263)
    Codec ID : DIVX
    Codec ID/Info : Project Mayo
    Codec ID/Hint : DivX 4
    Duration : 39mn 16s
    Bit rate : 1 315 Kbps
    Width : 1 024 pixels
    Height : 576 pixels
    Display aspect ratio : 16: 9
    Frame rate : 25.000 fps
    Color space : YUV
    Chroma subsampling : 4: 2: 0
    Bit depth : 8 bits
    Scan type : Progressive
    Compression mode : Lossy
    Bits/(Pixel*Frame) : 0.089
    Stream size : 369 MiB (90%)
    Writing library : XviD 67
    Audio
    ID : 1
    Format : MPEG Audio
    Format version : Version 1
    Format profile : Layer 3
    Codec ID : 55
    Codec ID/Hint : MP3
    Duration : 39mn 16s
    Bit rate mode : Constant
    Bit rate : 128 Kbps
    Channel(s) : 2 channels
    Sampling rate : 44.1 KHz
    Compression mode : Lossy
    Stream size : 36.0 MiB (9%)
    Alignment : Aligned on interleaves
    Interleave, duration : 26 ms (0.65 video frame)
    Скриншоты

    Размер скачиваемого торрента: 409.01 MB (428878498 Bytes)

    Дмитрий Маликов - Интервью (2017) HDTVRip
    загрузка...
    Рейтинг →
     (голосов: 1, оценка 5/5, голосовать можно 1 раз )

    Другие торренты по теме:

  • Наедине со всеми. Дмитрий Маликов (2015) SATRemux от -=HD-NET=- скачать через торрент бесплатно


    • Комментарии (0):

      Информация

      Информация

        Посетители, находящиеся в группе Гости, не могут оставлять комментарии в данной новости.

        ↓ Меню



        ↓ Опрос

        А Вы добавили сайт в закладки?
        Да
        Не


        Top 10 за месяц (Передачи)