.
Авторизация | Регистрация
Хочешь лучшие торренты? Добавь свой email!
Добавить




Танцы (2017) WEB-DL 720p от OlLanDGroup скачать торрент бесплатно

Опубликовал: Админ | Дата: 4-09-2017, 11:00 | Просмотров: 0



Русское название в мировом прокате: Танцы.
Создали в: 2017
Категория жанра: Реалити-шоу, танцы, развлекательный, хореография
Главный режиссер: Анатолий Шпульников

Актеры
Татьяна Денисова, Сергей Шестепёров (Мигель)
Ведет программу: Ляйсан Утяшева
Снималось в: Россия, Comedy Club Production, Телеканал ТНТ
Время просмотра: ~ 01: 34: 00
Язык: Русский

Сюжет фильма
Танцы 4 сезон любимого сериала в очередном сезон любимого сериалае любимого миллионами танцевального проекта нас ждет противостояние полов, потому что Егора Дружинина больше нет в числе членов жюри. Его место заняла знаменитый хореограф Татьяна Денисова. С появлением нового судьи будут связаны крупные изменения новых деталей проекта. В проекте окажутся хореографы Татьяны, которые станут трудиться в ее команде. Еще Татьяна Денисова добавит в критерии отбора участников новые фишки, в частности в испытания хореографией. Также у шоу будут полностью новые декорации и новая графика. Как будто это будет не очередной сезон любимого сериала, а новое шоу со сходным названием.
Файл
Кодек для видео: AVC
Качество фильма: WEB-DL 720p
Информация о видео: x264, 3509 Кбит/с, 1280x720
Информация о звуке: AC3, 2 ch, 192 Кбит/с
Релиз подготовил:
Инфо файл
Общее
Уникальный идентификатор : 263395792811687574738537847720462176370 (0xC6282F38C80617794BBF4672B16ED072)
Полное имя : D: ВидеоТанцы.4 сезон любимого сериала.2017.WEB-DL720p by OlLanDGroup?2.Танцы.s04.(26.08.2017)WEB-DL720p by OlLanDGroup.mkv
Формат : Matroska
Версия формата : Version 4/Version 2
Размер файла : 2, 51 Гбайт
Продолжительность : 1 ч. 34 м.
Общий поток : 3785 Кбит/сек
Название фильма : 02.Танцы.s04.(26.08.2017)WEB-DL720p by OlLanDGroup
Программа кодирования : Lavf57.25.100
Библиотека кодирования : Lavf57.25.100
Видео
Идентификатор : 1
Формат : AVC
Формат/Информация : Advanced Video Codec
Профиль формата : High@L3.1
Параметр CABAC формата : Да
Параметр ReFrames формата : 1 кадр
Параметр GOP формата : M=1, N=12
Идентификатор кодека : V_MPEG4/ISO/AVC
Продолжительность : 1 ч. 34 м.
Битрейт : 3518 Кбит/сек
Ширина : 1280 пикселей
Высота : 720 пикселей
Соотношение сторон : 16: 9
Режим частоты кадров : Постоянный
Частота кадров : 25, 000 кадров/сек
Стандарт вещания : Component
Цветовое пространство : YUV
Субдискретизация насыщенности : 4: 2: 0
Битовая глубина : 8 бит
Тип развёртки : Прогрессивная
Бит/(Пиксели*Кадры) : 0.153
Размер потока : 2, 33 Гбайт (93%)
Заголовок : by OlLanDGroup
Язык : Russian
Default : Да
Forced : Нет
_STATISTICS_TAGS : BPS DURATION NUMBER_OF_FRAMES NUMBER_OF_BYTES
DURATION : 01: 34: 53.632000000
NUMBER_OF_FRAMES : 165988
NUMBER_OF_BYTES : 2972430314
_STATISTICS_WRITING_APP : mkvmerge v15.0.0 (;Duel with the Devil;) 64-bit
_STATISTICS_WRITING_DATE_UTC : 2017-08-27 15: 19: 00
Аудио
Идентификатор : 2
Формат : AC-3
Формат/Информация : Audio Coding 3
Расширение режима : CM (complete main)
Параметр Endianness формата : Big
Идентификатор кодека : A_AC3
Продолжительность : 1 ч. 34 м.
Вид битрейта : Постоянный
Битрейт : 192 Кбит/сек
Каналы : 2 канала
Расположение каналов : Front: L R
Частота : 48, 0 КГц
Битовая глубина : 16 бит
Метод сжатия : С потерями
Размер потока : 130 Мбайт (5%)
Язык : Russian
Default : Да
Forced : Нет
_STATISTICS_TAGS : BPS DURATION NUMBER_OF_FRAMES NUMBER_OF_BYTES
DURATION : 01: 34: 53.664000000
NUMBER_OF_FRAMES : 207486
NUMBER_OF_BYTES : 159349248
_STATISTICS_WRITING_APP : mkvmerge v15.0.0 (;Duel with the Devil;) 64-bit
_STATISTICS_WRITING_DATE_UTC : 2017-08-27 15: 19: 00


Залил: Wazzzup RK
Размер скачиваемого торрента: 7.49 GB (8043016700 Bytes)

Танцы (2017) WEB-DL 720p от OlLanDGroup
загрузка...
Рейтинг →
 (голосов: 1, оценка 3/5, голосовать можно 1 раз )

Другие торренты по теме:

  • Танцы марионеток (2013) WEB-DL 720p
  • Танцы (2014) WEB-DL 720p
  • Танцы. Битва сезонов (2016) WEB-DL 720p
  • Танцы. Битва сезонов (2016) WEB-DL 720p
  • Танцы. Битва сезонов (2016) WEB-DL 720p
  • Танцы (2016) WEB-DL 720p
  • Танцы (2016) WEB-DL 720p от qqss44
  • Танцы (2016) WEB-DL 720p


    • Комментарии (0):

      Информация

      Информация

        Посетители, находящиеся в группе Гости, не могут оставлять комментарии в данной новости.

        ↓ Меню



        ↓ Опрос

        А Вы добавили сайт в закладки?
        Да
        Не


        Top 10 за месяц (Передачи)