.
Авторизация | Регистрация
Хочешь лучшие торренты? Добавь свой email!
Добавить
» » Экстрасенсы ведут расследование (2017) HDTV 1080i от Generalfilm скачать торрент бесплатно




    Экстрасенсы ведут расследование (2017) HDTV 1080i от Generalfilm скачать торрент бесплатно

    Опубликовал: Админ | Дата: 4-09-2017, 11:00 | Просмотров: 0



    Русское название в мировом прокате: Экстрасенсы ведут расследование
    Создали в: 2017
    Категория жанра: Реалити-шоу
    Снималось в: Россия, ТНТ
    Рейтинг:


    Сюжет фильма
    Документальный триллер-детектив с участием самых загадочных экстрасенсов России! Это не шоу, а демонстрация реальной мощи ясновидения. Участники и победители нескольких сезон любимого сериалаов Битвы экстрасенсов приводят документальные доказательства того, как паранормальные способности способны помочь людям. В этом цикле экстрасенсы находят пропавших родственников и угнанные автомобили, избавляют жилище от привидений и возвращают супругов в семьи. В фильмах создается эффект присутствия - зритель выступает очевидцем всех этапов процесса расследования. Комментарии свидетелей – следователей, самих героев событий – подтверждают правдоподобность происходящего на экране. А особенный интерес вызывает то, как люди со сверхвозможностями существуют в своих привычных условиях жизни и работы.
    Качество фильма: HDTV 1080i)
    Информация о видео: MPEG-4 AVC, ~ 10 Мбит/с, , 1920x1080
    Информация о звуке: AC3, 2 ch, 192 Кбит/с
    Время просмотра: 1 x ~ 01: 11: 11
    Язык: Русский
    Релиз подготовил
    Скриншоты







    ОтчетМедиаИнфо
    Общее
    Уникальный идентификатор : 244707303411462038367680139047881538466 (0xB818E98E223CC48AB3F1648914F5FBA2)
    Полное имя : E: Ekstrasensy vedut rassledovanie.s09.HDTV.1080i.GeneralfilmJEkstrasensy vedut rassledovanie.s09.e01.2017.HDTV 1080i.by.White Smoke.R.G.Generalfilm.mkv
    Формат : Matroska
    Размер файла : 5, 05 Гбайт
    Продолжительность : 1 ч. 11 м.
    Общий поток : 10, 2 Мбит/сек
    Название фильма : Ekstrasensy vedut rassledovanie.s09.e01.2017.HDTV 1080i.by.White Smoke.R.G.Generalfilm.mkv
    Дата кодирования : UTC 2017-08-27 17: 47: 51
    Программа кодирования : mkvmerge v6.8.0 (;Theme for Great Cities;) 64bit built on Mar 2 2014 21: 34: 26
    Библиотека кодирования : libebml v1.3.0 + libmatroska v1.4.1
    Видео
    Идентификатор : 1
    Формат : AVC
    Формат/Информация : Advanced Video Codec
    Профиль формата : High@L4.1
    Параметр CABAC формата : Да
    Параметр ReFrames формата : 3 кадры
    Параметры GOP формата : M=3, N=33
    Идентификатор кодека : V_MPEG4/ISO/AVC
    Продолжительность : 1 ч. 11 м.
    Вид битрейта : Постоянный
    Битрейт : 10 Мбит/с,
    Ширина : 1920 пикс.
    Высота : 1080 пикс.
    Соотношение сторон : 16: 9
    Частота кадров : 25, 000 кадр/сек
    Стандарт вещания : PAL
    Цветовое пространство : YUV
    Подвыборка цветности : 4: 2: 0
    Битовая глубина : 8 бит
    Тип развёртки : Прогрессивная
    Бит/(Пиксели*Кадры) : 0.193
    Размер потока : 4, 85 Гбайт (96%)
    Основные цвета : BT.709-5, BT.1361, IEC 61966-2-4, SMPTE RP177
    Характеристики трансфера : BT.709-5, BT.1361
    Коэффициенты матрицы : BT.709-5, BT.1361, IEC 61966-2-4 709, SMPTE RP177
    Аудио
    Идентификатор : 2
    Формат : AC-3
    Формат/Информация : Audio Coding 3
    Расширение режима : CM (complete main)
    Идентификатор кодека : A_AC3
    Продолжительность : 1 ч. 11 м.
    Вид битрейта : Постоянный
    Битрейт : 192 Кбит/сек
    Канал(ы) : 2 канала(ов)
    Расположение каналов : Front: L R
    Частота : 48, 0 КГц
    Битовая глубина : 16 бит
    Метод сжатия : С потерями
    Размер потока : 97, 8 Мбайт (2%)

    Раздача ведется путем добавления новых серий

    Когда раздача ведётся путём добавления новых серий, при каждом добавлении создётся новый торрент. Чтобы начать докачку новой серии, пользователям необходимо сделать следующее:
    (1) остановить скачивание,
    (2) удалить старый торрент у себя из клиента (старые серии удалять не надо),
    (3) скачать новый торрент и запустить его у себя в клиенте вместо старого, при этом указать клиенту путь в старую папку, куда и должно происходить скачивание новых серий.
    Ваш клиент при этом должен произвести хеширование (проверку) старой папки (если не производит сам - помогите ему сделать это), и будет докачивать только те серии, которых у вас ещё нет. Старые серии при этом не удаляются, а продолжают раздаваться!
    Eсли вы уже удалили старые серии, то предотвратить повторную закачку старых серий можно, отжав галочку в соответсвующих местах при запуске нового торрента. По возможности, желательно не удалять старые серии как можно дольше, чтобы релизёр не столько продолжал раздавать старые серии, а смог сконцентрироваться на новых.

    Залил: Valkiria-G.F.
    Размер скачиваемого торрента: 10.17 GB (10924706680 Bytes)

    Экстрасенсы ведут расследование (2017) HDTV 1080i от Generalfilm
    загрузка...
    Рейтинг →
     (голосов: 1, оценка 4/5, голосовать можно 1 раз )

    Другие торренты по теме:

  • Экстрасенсы ведут расследование (2013) SATRip от РиперАМ
  • Экстрасенсы ведут расследование (2014) SATRip скачать через торрент бесплатно
  • Экстрасенсы ведут расследование (2014) WEBRip
  • Экстрасенсы ведут расследование (2014) WEB-DLRip скачать через торрент бесплатно
  • Экстрасенсы ведут расследование (2014) WEB-DLRip
  • Экстрасенсы ведут расследование (2015) WEB-DL 720p
  • Экстрасенсы ведут расследование (2015) SATRip
  • Экстрасенсы ведут расследование (2015) SATRip


    • Комментарии (0):

      Информация

      Информация

        Посетители, находящиеся в группе Гости, не могут оставлять комментарии в данной новости.

        ↓ Меню



        ↓ Опрос

        А Вы добавили сайт в закладки?
        Да
        Не


        Top 10 за месяц (Передачи)