.
Авторизация | Регистрация
Хочешь лучшие торренты? Добавь свой email!
Добавить




Танцы (2017) WEB-DLRip от OlLanDGroup скачать торрент бесплатно

Опубликовал: Админ | Дата: 21-08-2017, 11:01 | Просмотров: 0



Русское название в мировом прокате: Танцы.
Создали в: 2017
Категория жанра: Реалити-шоу, танцы, развлекательный, хореография
Главный режиссер: Анатолий Шпульников

Актеры
Татьяна Денисова, Сергей Шестепёров (Мигель)
Ведет программу: Ляйсан Утяшева
Снималось в: Россия, Comedy Club Production, Телеканал ТНТ
Время просмотра: 00: 48: 48
Язык: Русский

Сюжет фильма
Танцы 4 сезон любимого сериала в очередном сезон любимого сериалае любимого миллионами танцевального проекта нас ждет противостояние полов, потому что Егора Дружинина больше нет в числе членов жюри. Его место заняла знаменитый хореограф Татьяна Денисова. С появлением нового судьи будут связаны крупные изменения новых деталей проекта. В проекте окажутся хореографы Татьяны, которые станут трудиться в ее команде. Еще Татьяна Денисова добавит в критерии отбора участников новые фишки, в частности в испытания хореографией. Также у шоу будут полностью новые декорации и новая графика. Как будто это будет не очередной сезон любимого сериала, а новое шоу со сходным названием.
Качество фильма: WEB-DLRip
Информация о видео: XviD, 1700 Кбит/с, 704x400
Информация о звуке: AC3, 2 ch, 192 Кбит/с
Релиз подготовил:
Инфо файл
Общее
Полное имя : D: TempТанцы.4 сезон любимого сериала.2017.WEB-DLRip by OlLanDGroup?1.Танцы.s04.(19.08.2017)WEB-DLRip by OlLanDGroup.avi
Формат : AVI
Формат/Информация : Audio Video Interleave
Размер файла : 1, 23 Гбайт
Продолжительность : 1 ч. 32 м.
Общий поток : 1901 Кбит/сек
Программа кодирования : VirtualDubMod 1.5.10.3 | www.virtualdub-fr.org || (build 2550/release)
Библиотека кодирования : VirtualDubMod build 2550/release
Видео
Идентификатор : 0
Формат : MPEG-4 Visual
Профиль формата : Advanced Simple@L5
Параметр BVOP формата : 2
Параметр QPel формата : Нет
Параметр GMC формата : Без точки перехода
Параметр матрицы формата : Выборочная
Идентификатор кодека : XVID
Идентификатор кодека/Подсказка : XviD
Продолжительность : 1 ч. 32 м.
Битрейт : 1699 Кбит/сек
Ширина : 704 пикселя
Высота : 400 пикселей
Соотношение сторон : 16: 9
Частота кадров : 25, 000 кадров/сек
Цветовое пространство : YUV
Субдискретизация насыщенности : 4: 2: 0
Битовая глубина : 8 бит
Тип развёртки : Прогрессивная
Метод сжатия : С потерями
Бит/(Пиксели*Кадры) : 0.241
Размер потока : 1, 10 Гбайт (89%)
Библиотека кодирования : XviD 73
Аудио
Идентификатор : 1
Формат : AC-3
Формат/Информация : Audio Coding 3
Расширение режима : CM (complete main)
Параметр Endianness формата : Big
Идентификатор кодека : 2000
Продолжительность : 1 ч. 32 м.
Вид битрейта : Постоянный
Битрейт : 192 Кбит/сек
Каналы : 2 канала
Расположение каналов : Front: L R
Частота : 44, 1 КГц
Битовая глубина : 16 бит
Метод сжатия : С потерями
Размер потока : 128 Мбайт (10%)
Выравнивание : Разделение по промежуткам
Продолжительность промежутка : 40 мс. (1, 00 видеокадр)
Время предзагрузки промежутка : 500 мс.


Залил: Wazzzup RK
Размер скачиваемого торрента: 1.23 GB (1323767808 Bytes)

Танцы (2017) WEB-DLRip от OlLanDGroup
загрузка...
Рейтинг →
 (голосов: 1, оценка 4/5, голосовать можно 1 раз )

Другие торренты по теме:

  • Танцы (2015) WEB-DLRip-AVC от ExKinoRay
  • Танцы (2016) WEB-DLRip-AVC от ExKinoRay
  • Танцы (2016) WEB-DLRip-AVC от ExKinoRay
  • Танцы (2016) WEB-DLRip-AVC от ExKinoRay
  • Танцы (2016) WEB-DLRip-AVC от ExKinoRay
  • Танцы (2016) WEB-DLRip-AVC от ExKinoRay
  • Танцы (2016) WEB-DLRip-AVC от ExKinoRay
  • Танцы (2016) WEB-DLRip-AVC от ExKinoRay


    • Комментарии (0):

      Информация

      Информация

        Посетители, находящиеся в группе Гости, не могут оставлять комментарии в данной новости.

        ↓ Меню



        ↓ Опрос

        А Вы добавили сайт в закладки?
        Да
        Не


        Top 10 за месяц (Передачи)