.
Авторизация | Регистрация
Хочешь лучшие торренты? Добавь свой email!
Добавить
» » Интерны. Полное обследование - Фильм о фильме (2013) SATRip-AVC скачать через торрент бесплатно




    Интерны. Полное обследование - Фильм о фильме (2013) SATRip-AVC скачать через торрент бесплатно

    Опубликовал: Админ | Дата: 27-02-2015, 11:10 | Просмотров: 554

    Детально о кино
    Русское название: Интерны. Полное обследование
    Создали в: 2013
    Категория жанра: Документальный
    Главный режиссеры: Максим Пежемский, Заур Болотаев, Милан Килибарда, Евгений Невский, Радда Новикова
    Актеры: Иван Охлобыстин, Кристина Асмус, Илья Глинников, Александр Ильин мл., Вадим Демчог, Светлана Камынина, Светлана Пермякова, Один Ланд Байрон, Заур Болотаев, Максим Пежемский, Семён Слепаков, Вячеслав Дусмухаметов


    Сюжет:
    Зрители смеются, однако героям сериала не до смеха - в больнице становится по-настоящему жарко. Молодые неопытные врачи постоянно попадают в комические ситуации, а их руководитель, заведующий терапией, доктор Быков вместо того чтобы научить подшучивает над ними. Так почему же так триумфально шествует по России, казалось бы на первый взгляд, обычный сериал о врачах. Так как же снимали интернов, репортажи со съемочной площадки, интервью с актерами, детали, которые остались за кадром и ответ на главный вопрос: в чем же успех проекта?


    Тех. данные


    Время просмотра: 00:46:26
    Снималось в: Россия, Comedy Club Production
    Перевод текста: Не требуется

    Файл
    Тип видео: MKV
    Качество фильма: SATRip-AVC
    Информация о видео: MPEG-4 AVC, 2070 Кбит/с, 720х440@768x440
    Информация о звуке: AC3, 1 ch, 192 Кбит/с
    MI:

    Общее
    Уникальный идентификатор : 179644301122362359697350417055853139867 (0x87263BE004D840F4B310ECE41501579B)
    Полное имя : D:Интерны. Полное обследование. 2013.mkv
    Формат : Matroska
    Версия формата : Version 2
    Размер файла : 753 Мбайт
    Продолжительность : 46 м.
    Общий поток : 2264 Кбит/сек
    Дата кодирования : UTC 2014-03-19 20:37:09
    Программа кодирования : mkvmerge v6.1.0 (;Old Devil;) built on Mar 4 2013 09:10:42
    Библиотека кодирования : libebml v1.3.0 libmatroska v1.4.0

    Видео
    Идентификатор : 1
    Формат : AVC
    Формат/Информация : Advanced Video Codec
    Профиль формата : Main@L3.0
    Параметр CABAC формата : Да
    Параметр ReFrames формата : 4 кадра
    Идентификатор кодека : V_MPEG4/ISO/AVC
    Продолжительность : 46 м.
    Битрейт : 2070 Кбит/сек
    Ширина : 768 пикселей
    Высота : 440 пикселей
    Соотношение сторон : 16:9
    Режим частоты кадров : Постоянный
    Частота кадров : 25,000 кадров/сек
    Цветовое пространство : YUV
    Субдискретизация насыщенности : 4:2:0
    Битовая глубина : 8 бит
    Тип развёртки : Прогрессивная
    Бит/(Пиксели*Кадры) : 0.245
    Размер потока : 674 Мбайт (90%)
    Библиотека кодирования : x264 core 130 r2273 b3065e6
    Настройки программы : cabac=1 / ref=3 / deblock=1:0:0 / analyse=0x1:0x111 / me=umh / subme=9 / psy=1 / psy_rd=1.00:0.00 / mixed_ref=1 / me_range=32 / chroma_me=1 / trellis=1 / 8x8dct=0 / cqm=0 / deadzone=21,11 / fast_pskip=1 / chroma_qp_offset=-2 / threads=3 / lookahead_threads=1 / sliced_threads=0 / nr=0 / decimate=1 / interlaced=0 / bluray_compat=0 / constrained_intra=0 / bframes=3 / b_pyramid=2 / b_adapt=2 / b_bias=0 / direct=3 / weightb=1 / open_gop=0 / weightp=2 / keyint=250 / keyint_min=25 / scenecut=40 / intra_refresh=0 / rc_lookahead=60 / rc=2pass / mbtree=1 / bitrate=2070 / ratetol=1.0 / qcomp=0.60 / qpmin=0 / qpmax=69 / qpstep=4 / cplxblur=20.0 / qblur=0.5 / ip_ratio=1.40 / aq=1:1.00
    Default : Да
    Forced : Нет

    Аудио
    Идентификатор : 2
    Формат : AC-3
    Формат/Информация : Audio Coding 3
    Расширение режима : CM (complete main)
    Параметр Endianness формата : Big
    Идентификатор кодека : A_AC3
    Продолжительность : 46 м.
    Вид битрейта : Постоянный
    Битрейт : 192 Кбит/сек
    Каналы : 1 канал
    Расположение каналов : Front: C
    Частота : 48,0 КГц
    Битовая глубина : 16 бит
    Метод сжатия : С потерями
    Размер потока : 63,9 Мбайт (8%)
    Default : Да
    Forced : Нет
    Скриншоты для ознакомления




    Размер скачиваемого торрента: 752.95 MB (789527822 Bytes)

    Интерны. Полное обследование - Фильм о фильме (2013) SATRip-AVC скачать через торрент бесплатно
    загрузка...
    Рейтинг →
     (голосов: 1, оценка 5/5, голосовать можно 1 раз )

    Другие торренты по теме:

  • Интерны (2013) WEBRip
  • Интерны (2013) SATRip
  • Интерны (2012) SATRip от GettyGroup
  • Интерны (2013) SATRip-AVC
  • Интерны (2012) SATRip-AVC
  • Интерны. История болезни (2012) SATRip-AVC
  • Интерны (2012-2013) SATRip от BitTracker
  • Интерны (2013) HQ SATRip


    • Комментарии (0):

      Информация

      Информация

        Посетители, находящиеся в группе Гости, не могут оставлять комментарии в данной новости.

        ↓ Меню



        ↓ Опрос

        А Вы добавили сайт в закладки?
        Да
        Не


        Top 10 за месяц (Другое)