.
Авторизация | Регистрация
Хочешь лучшие торренты? Добавь свой email!
Добавить
» » Call of Duty: WWII (2017) WEBRip 720p | 60 fps | D скачать торрент бесплатно




    Call of Duty: WWII (2017) WEBRip 720p | 60 fps | D скачать торрент бесплатно

    Опубликовал: Админ | Дата: 15-11-2017, 11:01 | Просмотров: 0



    Русское название в мировом прокате: Call of Duty: WWII
    Создали в: 2017 г.
    Разработчик игры: Sledgehammer Games (США)
    Создатель видео: GamingWalkDi
    Категория жанра: Игрофильм
    Время просмотра: 02: 50: 00
    Перевод текста: Профессиональный (дублированный) СофтКлаб
    Субтитры: Русский хардсаб Диалоги, экранные надписи и тп.
    Главный режиссеры: Глен Шофилд, Майкл Кондри

    Актеры
    Джош Дюамель, Джонатан Такер, Джеффри Пирс, Бретт Циммерман, Кевин Кобал, Джефф Шин, Расселл Ричардсон и др.
    Описание:
    ДействияCall of Duty: WWIIвернутся во времена конца Второй мировой войны, а именно с 1944 по 1945 год, на европейском театре военных конфликтов, в то время, когда союзные войска начали собирать силы на свой марш в Германии. Кампания охватит боевые действия в оккупированных городах Франции, Бельгии, и через Рейн в Германию.
    Дополнительная информация:
    Данное видео позиционируется как ИГРОФИЛЬМ (без комментариев). В игрофильме присутствуют все катсцены + урезанный геймплей (все диалоги сохранены, переходы между CGI и геймплейные съёмки тоже сохранены, укорочены перестрелки до минимума).

    Качество фильма: WEBRip 720p | 60 fps
    Тип видео: MP4
    Информация о видео: MPEG-4 AVC Video (H.264)/1280х720/2588 kbps/59.940 fps
    Информация о звуке: AAC, 2 channels, 44.1 kHz, 128 kbps
    MediaInfo
    General
    Complete name : Call.of.Duty.WWII.2017.D.WEBRip.720p.60fps.mp4
    Format : MPEG-4
    Format profile : Base Media
    Codec ID : isom
    File size : 3.24 GiB
    Duration : 2h 50mn
    Overall bit rate : 2 730 Kbps
    Writing application : Lavf56.40.101
    Video
    ID : 1
    Format : AVC
    Format/Info : Advanced Video Codec
    Format profile : Main@L3.2
    Format settings, CABAC : Yes
    Format settings, ReFrames : 3 frames
    Codec ID : avc1
    Codec ID/Info : Advanced Video Coding
    Duration : 2h 50mn
    Bit rate : 2 588 Kbps
    Width : 1 280 pixels
    Height : 720 pixels
    Display aspect ratio : 16: 9
    Frame rate mode : Variable
    Frame rate : 59.940 fps
    Minimum frame rate : 59.920 fps
    Maximum frame rate : 90 000.000 fps
    Color space : YUV
    Chroma subsampling : 4: 2: 0
    Bit depth : 8 bits
    Scan type : Progressive
    Bits/(Pixel*Frame) : 0.047
    Stream size : 3.07 GiB (95%)
    Color primaries : BT.709
    Transfer characteristics : BT.709
    Matrix coefficients : BT.709
    Audio
    ID : 2
    Format : AAC
    Format/Info : Advanced Audio Codec
    Format profile : LC
    Codec ID : 40
    Duration : 2h 50mn
    Bit rate mode : Constant
    Bit rate : 126 Kbps
    Channel(s) : 2 channels
    Channel positions : Front: L R
    Sampling rate : 44.1 KHz
    Compression mode : Lossy
    Stream size : 153 MiB (5%)
    Скриншоты




    Размер скачиваемого торрента: 3.24 GB (3480685343 Bytes)

    Call of Duty: WWII (2017) WEBRip 720p | 60 fps | D
    загрузка...
    Рейтинг →
     (голосов: 1, оценка 5/5, голосовать можно 1 раз )

    Другие торренты по теме:

  • Call of Duty: Золотое издание / Call of Duty: Gold (2004-2005) PC | Лицензия
  • Call of Duty: Black Ops 2: Digital Deluxe Edition (2012) PC | Rip от R.G. Механики
  • Call Of Duty: Black Ops (2010) PS3
  • OST - Call Of Duty 4: Modern Warfare Soundtrack (2007) MP3
  • OST - Call Of Duty: Modern Warfare 3 Soundtrack (2011) MP3
  • OST - Call Of Duty: World At War Soundtrack (2008) MP3
  • OST - Call Of Duty: Modern Warfare 2 Soundtrack (2009) MP3
  • Call of Duty: Modern Warfare 2 - Multiplayer Only (2013) РС | RIP By X-NET


    • Комментарии (0):

      Информация

      Информация

        Посетители, находящиеся в группе Гости, не могут оставлять комментарии в данной новости.

        ↓ Меню



        ↓ Опрос

        А Вы добавили сайт в закладки?
        Да
        Не


        Top 10 за месяц (Другое)