.
Авторизация | Регистрация
Хочешь лучшие торренты? Добавь свой email!
Добавить
» » Call of Duty: WWII (2017) UHD 2160p | 4K | 60 fps | D скачать торрент бесплатно




    Call of Duty: WWII (2017) UHD 2160p | 4K | 60 fps | D скачать торрент бесплатно

    Опубликовал: Админ | Дата: 15-11-2017, 11:01 | Просмотров: 0



    Русское название в мировом прокате: Call of Duty: WWII
    Создали в: 2017 г.
    Разработчик игры: Sledgehammer Games (США)
    Создатель видео: GamingWalkDi
    Категория жанра: Игрофильм
    Время просмотра: 02: 50: 00
    Перевод текста: Профессиональный (дублированный) СофтКлаб
    Субтитры: Русский хардсаб Диалоги, экранные надписи и тп.
    Главный режиссеры: Глен Шофилд, Майкл Кондри

    Актеры
    Джош Дюамель, Джонатан Такер, Джеффри Пирс, Бретт Циммерман, Кевин Кобал, Джефф Шин, Расселл Ричардсон и др.
    Описание:
    ДействияCall of Duty: WWIIвернутся во времена конца Второй мировой войны, а именно с 1944 по 1945 год, на европейском театре военных конфликтов, в то время, когда союзные войска начали собирать силы на свой марш в Германии. Кампания охватит боевые действия в оккупированных городах Франции, Бельгии, и через Рейн в Германию.
    Дополнительная информация:
    Данное видео позиционируется как ИГРОФИЛЬМ (без комментариев). В игрофильме присутствуют все катсцены + урезанный геймплей (все диалоги сохранены, переходы между CGI и геймплейные съёмки тоже сохранены, укорочены перестрелки до минимума).

    Качество фильма: UHD 2160p | 4K | 60 fps
    Тип видео: MP4
    Информация о видео: MPEG-4 AVC Video (H.264)/3840х2160/49.3 Mbps/59.940 fps
    Информация о звуке: AAC, 2 channels, 44.1 kHz, 128 kbps
    MediaInfo
    General
    Complete name : Call.of.Duty.WWII.2017.D.UHD.2160p.60fps.mp4
    Format : MPEG-4
    Codec ID : M4V
    File size : 58.6 GiB
    Duration : 2h 50mn
    Overall bit rate mode : Variable
    Overall bit rate : 49.4 Mbps
    Encoded date : UTC 2017-11-08 05: 31: 30
    Tagged date : UTC 2017-11-08 05: 31: 30
    Video
    ID : 1
    Format : AVC
    Format/Info : Advanced Video Codec
    Format profile : High@L5.2
    Format settings, CABAC : Yes
    Format settings, ReFrames : 2 frames
    Codec ID : avc1
    Codec ID/Info : Advanced Video Coding
    Duration : 2h 50mn
    Bit rate : 49.3 Mbps
    Maximum bit rate : 78.6 Mbps
    Width : 3 840 pixels
    Height : 2 160 pixels
    Display aspect ratio : 16: 9
    Frame rate mode : Constant
    Frame rate : 59.940 fps
    Original frame rate : 59.000 fps
    Color space : YUV
    Chroma subsampling : 4: 2: 0
    Bit depth : 8 bits
    Scan type : Progressive
    Bits/(Pixel*Frame) : 0.099
    Stream size : 58.5 GiB (100%)
    Encoded date : UTC 2017-11-08 05: 31: 30
    Tagged date : UTC 2017-11-08 05: 53: 03
    Audio
    ID : 2
    Format : AAC
    Format/Info : Advanced Audio Codec
    Format profile : LC
    Codec ID : 40
    Duration : 2h 50mn
    Bit rate mode : Variable
    Bit rate : 62.4 Kbps
    Maximum bit rate : 90.2 Kbps
    Channel(s) : 2 channels
    Channel positions : Front: L R
    Sampling rate : 44.1 KHz
    Compression mode : Lossy
    Delay relative to video : 33ms
    Stream size : 75.8 MiB (0%)
    Encoded date : UTC 2017-11-07 15: 30: 55
    Tagged date : UTC 2017-11-08 05: 53: 03
    Скриншоты




    Размер скачиваемого торрента: 58.62 GB (62943962653 Bytes)

    Call of Duty: WWII (2017) UHD 2160p | 4K | 60 fps | D
    загрузка...
    Рейтинг →
     (голосов: 1, оценка 3/5, голосовать можно 1 раз )

    Другие торренты по теме:

  • Call of Duty: Золотое издание / Call of Duty: Gold (2004-2005) PC | Лицензия
  • Call of Duty: Black Ops 2: Digital Deluxe Edition (2012) PC | Rip от R.G. Механики
  • Call Of Duty: Black Ops (2010) PS3
  • OST - Call Of Duty 4: Modern Warfare Soundtrack (2007) MP3
  • OST - Call Of Duty: Modern Warfare 3 Soundtrack (2011) MP3
  • OST - Call Of Duty: World At War Soundtrack (2008) MP3
  • OST - Call Of Duty: Modern Warfare 2 Soundtrack (2009) MP3
  • Call of Duty: Modern Warfare 2 - Multiplayer Only (2013) РС | RIP By X-NET


    • Комментарии (0):

      Информация

      Информация

        Посетители, находящиеся в группе Гости, не могут оставлять комментарии в данной новости.

        ↓ Меню



        ↓ Опрос

        А Вы добавили сайт в закладки?
        Да
        Не


        Top 10 за месяц (Другое)