.
Авторизация | Регистрация
Хочешь лучшие торренты? Добавь свой email!
Добавить
» » Сидоров Г.А. Встреча в Германии с читателями (2013) CAMRip скачать торрент бесплатно




    Сидоров Г.А. Встреча в Германии с читателями (2013) CAMRip скачать торрент бесплатно

    Опубликовал: Админ | Дата: 27-02-2015, 11:09 | Просмотров: 583



    Год выпуска: 2013
    Страна: Россия
    Жанр: Просвещение
    Продолжительность: 2:16:18
    Перевод: Не требуется

    Описание: Встреча писателя Георгия Алексеевича Сидорова, автора цикла книг Хронолого-эзотерический анализ развития современной цивилизации в Германии с читателями его книг в феврале 2013 года. Делится с людьми о происходящем в Мире и России событий, направленных на геноцид Белых людей.

    качество: CAMRip
    формат: AVI
    видеокодек: XviD
    аудиокодек: MP3
    Видео: 720x400, 1000 kbps, 25 fps
    Аудио: 128 kbps, 44.1 Khz, 2 ch

    MediaInfo
    General
    Complete name : D:Г.А.Сидоров. Встреча с читателями в Германии 2013 - 1 часть.avi
    Format : AVI
    Format/Info : Audio Video Interleave
    File size : 486 MiB
    Duration : 59mn 55s
    Overall bit rate : 1 134 Kbps

    Video
    ID : 0
    Format : MPEG-4 Visual
    Format profile : Advanced Simple@L5
    Format settings, BVOP : No
    Format settings, QPel : No
    Format settings, GMC : No warppoints
    Format settings, Matrix : Default (H.263)
    Codec ID : XVID
    Codec ID/Hint : XviD
    Duration : 59mn 55s
    Bit rate : 998 Kbps
    Width : 720 pixels
    Height : 400 pixels
    Display aspect ratio : 16:9
    Frame rate : 25.000 fps
    Color space : YUV
    Chroma subsampling : 4:2:0
    Bit depth : 8 bits
    Scan type : Progressive
    Compression mode : Lossy
    Bits/(Pixel*Frame) : 0.139
    Stream size : 428 MiB (88%)
    Writing library : XviD 62

    Audio
    ID : 1
    Format : MPEG Audio
    Format version : Version 1
    Format profile : Layer 3
    Codec ID : 55
    Codec ID/Hint : MP3
    Duration : 59mn 55s
    Bit rate mode : Constant
    Bit rate : 128 Kbps
    Channel(s) : 2 channels
    Sampling rate : 44.1 KHz
    Compression mode : Lossy
    Stream size : 54.9 MiB (11%)
    Alignment : Split accross interleaves
    Interleave, duration : 80 ms (2.00 video frames)

    Скриншоты



    Залил: vedamudrart
    Размер: 1.08 GB (1159693630 Bytes)
    загрузка...
    Рейтинг →
     (голосов: 1, оценка 5/5, голосовать можно 1 раз )

    Другие торренты по теме:

  • Сидоров Георгий Алексеевич - Хронолого-эзотерический анализ развития современной цивилизации. Пути. Дороги. Встречи. Книга 3 (2010) FB2
  • Сидоров Георгий Алексеевич - Хронолого-эзотерический анализ развития современной цивилизации. Истоки знания. Книга 2 (2009) FB2
  • Сидоров Георгий Алексеевич - Хронолого-эзотерический анализ развития современной цивилизации. Ввод в тему. Книга 1 (2007) FB2
  • Сидоров Георгий Алексеевич - Хронолого-эзотерический анализ развития современной цивилизации. За семью печатями. Книга 4 (2010) FB2
  • Георгий Сидоров - Завещание Никлота (2008) MP3
  • Г.А. Сидоров - Рок возомнивших себя богами (2014) FB2 скачать через торрент бесплатно
  • Сидоров Г.А. - Воинские традиции ариев (2014) PDF
  • Георгий Сидоров - Завещание Никлота (2011) FLAC


    • Комментарии (0):

      Информация

      Информация

        Посетители, находящиеся в группе Гости, не могут оставлять комментарии в данной новости.

        ↓ Меню



        ↓ Опрос

        А Вы добавили сайт в закладки?
        Да
        Не


        Top 10 за месяц (Другое)