.
Авторизация | Регистрация
Хочешь лучшие торренты? Добавь свой email!
Добавить
» » Андре Рьё - Коллекция концертов на DVD / Andre Rieu - DVD Collection (1998-2012) DVD5, DVD9 скачать торрент бесплатно




    Андре Рьё - Коллекция концертов на DVD / Andre Rieu - DVD Collection (1998-2012) DVD5, DVD9 скачать торрент бесплатно

    Опубликовал: Админ | Дата: 23-07-2015, 15:23 | Просмотров: 335



    Информация о фильме
    Музыкальный релиз: Андре Рьё - Коллекция концертов на DVD
    Оригинальное название: Andre Rieu DVD Collection (45 DVD)
    Год выпуска выхода: 1998-2012
    Направление: Classical
    Режиссер: Andre Rieu
    В ролях: Andre Rieu
    О фильме:
    Андре Леон Мари Николя Рьё (нидерл. Andr? L?on Marie Nicolas Rieu; род. 1 октября 1949, Маастрихт) — нидерландский дирижёр и скрипач, называемый в прессе Королём вальса вслед за Иоганном Штраусом-сыном. Сын дирижёра Андре Рьё-старшего.
    Учился в Льеже, затем в Маастрихте, в 1977 г. окончил Брюссельскую консерваторию; среди учителей Рьё были, в частности, Андре Гертлер и Герман Кребберс. Играл вторую скрипку в Лимбургском симфоническом оркестре под руководством своего отца.
    Основав Маастрихтский салонный оркестр, состоявший буквально из нескольких музыкантов, Рьё выступал с ними в голландских домах престарелых, исполняя венские вальсы. В 1987 г. под руководством Рьё возник Оркестр Иоганна Штрауса, первоначально включавший 12 исполнителей. В 1992 г. оркестр записал первый диск, Счастливого Рождества (англ. Merry Christmas); в 1994 году запись Второго вальса из Сюиты для эстрадного оркестра Дмитрия Шостаковича сделала Рьё и его новый коллектив знаменитым по всем Нидерландам, а второй альбом, Штраус и компания (англ. Strauss Co.), около года не покидал национальный Top100.
    В дальнейшем Рьё со своим оркестром широко гастролировал по миру, выпускал до семи альбомов (студийных и концертных) в год, увеличил состав оркестра до 50-55 музыкантов. К 2008 г. альбомы Рьё были проданы в количестве 27 миллионов экземпляров.
    В раздачу включена коллекция концертов Andre Rieu и Оркестрa Иоганна Штрауса по 2012 год (практически все последующие релизы доступны уже на Blu-Ray). В подборку включены максимально качественные (DVD9) версии большинства дисков.
    1998 - au Zenith de Paris (DVD5)
    2001 - Worldtour Concert (DVD9)
    2002 - 100 Years Of Strauss (DVD5)
    2002 - Christmas With Andre Rieu (Mein Weihnachts Traum)(DVD9)
    2002 - Dreaming (Aimer)(DVD9)
    2002 - Live at the Royal Albert Hall (DVD9)
    2002 - Love Around The World (Croisiere Romantique, Walzertraum)(DVD9)
    2003 - La vie est belle (Life is Beautiful) (DVD9)
    2003 - Live in Dublin (DVD9)
    2004 - Flying dutchman (Le Monde En Fete) (DVD9)
    2004 - Romantic Moments (DVD9)
    2004 - Silvester Punsch (DVD9)
    2004 - Tuscany (Romantic Paradis) (DVD9)
    2005 - Love Songs (DVD9)
    2005 - New Year In Vienna (DVD9)
    2005 - Songs From My Heart - In His Hometown Maastricht - Aus Meinem Herzen (DVD9)
    2006 - Christmas Around The World (DVD5)
    2007 - In Wonderland (DVD9)
    2007 - Live at Vienna (DVD9)
    2007 - Radio City Hall Live in New York (DVD9)
    2007 - Romance (DVD9)
    2007 - Royal dreams - The Best of Live in Concert (DVD9)
    2008 - Dancing Through The Skies - Wedding At The Opera (DVD9)
    2008 - Gala Concert (DVD5)
    2008 - Live In Australia (DVD9)
    2008 - Live In Maastricht II (DVD9)
    2008 - The 100 Greatest Moments (3 DVD9)
    2009 - A dream come true (DVD9)
    2009 - Champagne melodies (DVD9)
    2009 - I Lost My Heart In Heidelberg (DVD5)
    2009 - Live In Maastricht III (DVD5)
    2010 - Gala - Live In De Arena (DVD5)
    2010 - Live At Schonbrunn, Vienna (DVD9)
    2010 - Live in Maastrich 4 - A Midsummer Night;s Dream (DVD9)
    2010 - Live In Sydney (2 DVD9)
    2010 - My african dream (2 DVD9)
    2010 - Roses from The South (DVD9)
    2011 - Fiesta Mexicana (2 DVD9)
    2011 - Moonlight Serenade (DVD5)
    2011 - Under The Stars - Live In Maastricht V (DVD9)
    2011 - Wiener festwalzer (And the waltz goes on) (DVD9)
    2012 - 25 Years Of Johann Strauss Orchester (DVD9)
    2012 - Home For Christmas (DVD5)
    2012 - King Of The Walz (2 DVD9)
    Страна: Netherlands
    Время прослушивания: 85: 00: 00
    Перевод: Не требуется
    Файл
    Кодек: MPEG2
    Качество: DVD9
    Видео: PAL 16: 9 (720x576) VBR, 5168 Кбит/сек
    Звук: English (AC3, 6 ch, 448 Кбит/сек), Deutsch (Dolby AC3, 2 ch, 192 Кбит/сек). На DVD9 - DTS, 6 ch, 1500 кбит/с)
    Субтитры: английский, немецкий, голландский, французский
    Технические данные MediaInfo

    General
    Format : MPEG-PS
    File size : 1 024 MiB
    Duration : 19mn 6s
    Overall bit rate : 7 489 Kbps
    Video
    ID : 224 (0xE0)
    Format : MPEG Video
    Format version : Version 2
    Format profile : Main@Main
    Format settings, BVOP : No
    Format settings, Matrix : Custom
    Format settings, GOP : M=3, N=16
    Duration : 19mn 6s
    Bit rate : 5 831 Kbps
    Maximum bit rate : 5 500 Kbps
    Width : 720 pixels
    Height : 480 pixels
    Display aspect ratio : 16: 9
    Frame rate : 29.970 fps
    Standard : NTSC
    Color space : YUV
    Chroma subsampling : 4: 2: 0
    Bit depth : 8 bits
    Scan type : Progressive
    Compression mode : Lossy
    Bits/(Pixel*Frame) : 0.563
    Time code of first frame : 01: 34: 49: 09
    Time code source : Group of pictures t_head
    Stream size : 797 MiB (78%)
    Color primaries : BT.601 NTSC
    Transfer characteristics : BT.601
    Matrix coefficients : BT.601
    Audio
    ID : 189 (0xBD)-137 (0x89)
    Format : DTS
    Format/Info : Digital Theater Systems
    Mode : 16
    Format settings, Endianness : Big
    Muxing mode : DVD-Video
    Duration : 19mn 6s
    Bit rate mode : Constant
    Bit rate : 1 510 Kbps
    Channel(s) : 6 channels
    Channel positions : Front: L C R, Side: L R, LFE
    Sampling rate : 48.0 KHz
    Bit depth : 24 bits
    Compression mode : Lossy
    Delay relative to video : -323ms
    Stream size : 206 MiB (20%)
    Text #1
    ID : 189 (0xBD)-32 (0x20)
    Format : RLE
    Format/Info : Run-length encoding
    Muxing mode : DVD-Video
    Delay relative to video : 567ms
    Text #2
    ID : 189 (0xBD)-33 (0x21)
    Format : RLE
    Format/Info : Run-length encoding
    Muxing mode : DVD-Video
    Delay relative to video : 567ms
    Text #3
    ID : 189 (0xBD)-34 (0x22)
    Format : RLE
    Format/Info : Run-length encoding
    Muxing mode : DVD-Video
    Delay relative to video : 567ms
    Text #4
    ID : 189 (0xBD)-35 (0x23)
    Format : RLE
    Format/Info : Run-length encoding
    Muxing mode : DVD-Video
    Delay relative to video : 2s 202ms
    Text #5
    ID : 189 (0xBD)-36 (0x24)
    Format : RLE
    Format/Info : Run-length encoding
    Muxing mode : DVD-Video
    Delay relative to video : 2s 202ms
    Menu

    Скриншоты







    Залил: tantrist
    Размер скачиваемого торрента: 312.88 GB (335948553796 Bytes)

    Андре Рьё - Коллекция концертов на DVD/Andre Rieu - DVD Collection (1998-2012) DVD5, DVD9
    загрузка...
    Рейтинг →
     (голосов: 1, оценка 3/5, голосовать можно 1 раз )

    Другие торренты по теме:

  • Жуино Андре - Ме 109. Мессершмит. 1936-1942 (2014) PDF скачать через торрент бесплатно
  • Андре Моруа - Тургенев / Биография / 2013 / Елена Чубарова / MP3
  • Андре Жид - Возвращение из СССР и поправки к моему возвращению из СССР / Мемуары / 1989 / Алексей Ковалев / MP3
  • Андре Моруа - Дон Жуан, или Жизнь Байрона (2010) DJVU
  • Андре Нортон - Королева Солнца. Зачумленный корабль (2006) MP3
  • Андре Моруа - Сборник произведений (1928-2016) FB2, DJVU, PDF


    • Комментарии (0):

      Информация

      Информация

        Посетители, находящиеся в группе Гости, не могут оставлять комментарии в данной новости.

        ↓ Меню



        ↓ Опрос

        А Вы добавили сайт в закладки?
        Да
        Не


        Top 10 за месяц (Музыка)