.
Авторизация | Регистрация
Хочешь лучшие торренты? Добавь свой email!
Добавить
» » Дельфин - Я буду жить 4 клипа (2000) DVDRip скачать торрент бесплатно




    Дельфин - Я буду жить 4 клипа (2000) DVDRip скачать торрент бесплатно

    Опубликовал: Админ | Дата: 27-02-2015, 11:09 | Просмотров: 515


    Название: Я буду жить
    Исполнитель: Dolphin | Дельфин
    Год выхода: 2000 год, официальный DVD 2001 год
    Жанр: Концерт, Rock, Alternative, Noise, Rap
    Продолжительность: 00:46:27 концерт и 00:16:29 клипы
    Кодек: XviD
    Качество: DVDRip
    Формат: AVI
    Видео: XviD, 2300 Кбит/с, 720x440
    Звук: концерт - ac3, 6 ch, 448 Кбит/с. клипы - mp3, 2 ch, 248 Кбит/с
    Дополнительная информация:
    Концерт 2000г и Клипы которые входили в официальный DVD который вышел не большим тиражом в 2001 году.
    Трек-лист
    Концерт:
    01. Дилер
    02. Убийца
    03. Тишина
    04. Один на один
    05. Любовь
    06. Вера
    07. Я люблю людей
    08. Надежда
    09. Ласты
    10. Дверь
    11. Молоко
    12. Я буду жить
    Клипы которые входили в официальный DVD:
    1. Дверь
    2. Я буду жить
    3. Любовь
    4. Радиоволна
    MI
    Общее
    Полное имя : D:КлипыDolphin_-_Я_буду_жить_Live_2000AVI_(звук_6_кан)_ 4клипаDolphin_-_Я_буду_жить_Live.avi
    Формат : AVI
    Формат/Информация : Audio Video Interleave
    Размер файла : 917 Мбайт
    Продолжительность : 46 м.
    Общий поток : 2759 Кбит/сек
    Название фильма : Я буду Жить
    Ограничения прав : не проходило оценку
    Программа кодирования : Lavf53.18.0
    Формат оригинала/Имя : Music Video
    Правообладатель : MOSLG,A445
    Примечание : Концерт

    Видео
    Идентификатор : 0
    Формат : xvid
    Идентификатор кодека : xvid
    Продолжительность : 46 м.
    Битрейт : 2300 Кбит/сек
    Ширина : 720 пикселей
    Высота : 440 пикселей
    Соотношение сторон : 1,636
    Частота кадров : 25,000 кадров/сек
    Бит/(Пиксели*Кадры) : 0.290
    Размер потока : 764 Мбайт (83%)

    Аудио
    Идентификатор : 1
    Формат : AC-3
    Формат/Информация : Audio Coding 3
    Идентификатор кодека : 00001000-0000-0020-8000-00AA00389B71
    Продолжительность : 46 м.
    Битрейт : 448 Кбит/сек
    Каналы : 6 каналов
    Расположение каналов : Front: L C R, Side: L R, LFE
    Частота : 44,1 КГц
    Битовая глубина : 16 бит
    Метод сжатия : С потерями
    Размер потока : 149 Мбайт (16%)
    Продолжительность промежутка : 35 мс. (0,87 видеокадр)
    Время предзагрузки промежутка : 69 мс.
    Язык : Не определен

    Общее
    Полное имя : D:КлипыDolphin_-_Я_буду_жить_Live_2000AVI_(звук_6_кан)_ 4клипабонус - Дверь.avi
    Формат : AVI
    Формат/Информация : Audio Video Interleave
    Размер файла : 77,2 Мбайт
    Продолжительность : 4 м. 47 с.
    Общий поток : 2257 Кбит/сек
    Название фильма : бонус - Дверь
    Программа кодирования : Lavf53.18.0
    Правообладатель : MOSLG,A445

    Видео
    Идентификатор : 0
    Формат : xvid
    Идентификатор кодека : xvid
    Продолжительность : 4 м. 45 с.
    Битрейт : 2002 Кбит/сек
    Ширина : 720 пикселей
    Высота : 380 пикселей
    Соотношение сторон : 1,895
    Частота кадров : 25,000 кадров/сек
    Бит/(Пиксели*Кадры) : 0.293
    Размер потока : 68,0 Мбайт (88%)

    Аудио
    Идентификатор : 1
    Формат : MPEG Audio
    Версия формата : Version 1
    Профиль формата : Layer 3
    Режим : Joint stereo
    Идентификатор кодека : 55
    Идентификатор кодека/Подсказка : MP3
    Продолжительность : 4 м. 47 с.
    Вид битрейта : Постоянный
    Битрейт : 256 Кбит/сек
    Каналы : 2 канала
    Частота : 44,1 КГц
    Метод сжатия : С потерями
    Размер потока : 8,76 Мбайт (11%)
    Выравнивание : Соединение по промежуткам
    Продолжительность промежутка : 26 мс. (0,65 видеокадр)
    Библиотека кодирования : LAME3.99.5
    Язык : Не определен

    Общее
    Полное имя : D:КлипыDolphin_-_Я_буду_жить_Live_2000AVI_(звук_6_кан)_ 4клипабонус - Любовь 18.avi
    Формат : AVI
    Формат/Информация : Audio Video Interleave
    Размер файла : 59,7 Мбайт
    Продолжительность : 3 м. 40 с.
    Общий поток : 2275 Кбит/сек
    Название фильма : Любовь (2)
    Режиссёр : Dolphin
    Программа кодирования : Lavf53.18.0
    Правообладатель : MOSLG,A445

    Видео
    Идентификатор : 0
    Формат : xvid
    Идентификатор кодека : xvid
    Продолжительность : 3 м. 40 с.
    Битрейт : 2007 Кбит/сек
    Ширина : 720 пикселей
    Высота : 540 пикселей
    Соотношение сторон : 4:3
    Частота кадров : 25,000 кадров/сек
    Бит/(Пиксели*Кадры) : 0.206
    Размер потока : 52,6 Мбайт (88%)

    Аудио
    Идентификатор : 1
    Формат : MPEG Audio
    Версия формата : Version 1
    Профиль формата : Layer 3
    Режим : Joint stereo
    Расширение режима : MS Stereo
    Идентификатор кодека : 55
    Идентификатор кодека/Подсказка : MP3
    Продолжительность : 3 м. 40 с.
    Вид битрейта : Постоянный
    Битрейт : 256 Кбит/сек
    Каналы : 2 канала
    Частота : 44,1 КГц
    Метод сжатия : С потерями
    Размер потока : 6,72 Мбайт (11%)
    Выравнивание : Соединение по промежуткам
    Продолжительность промежутка : 26 мс. (0,65 видеокадр)
    Библиотека кодирования : LAME3.99.5
    Язык : Не определен

    Общее
    Полное имя : D:КлипыDolphin_-_Я_буду_жить_Live_2000AVI_(звук_6_кан)_ 4клипабонус - Я буду жить (1998).avi
    Формат : AVI
    Формат/Информация : Audio Video Interleave
    Размер файла : 61,4 Мбайт
    Продолжительность : 3 м. 47 с.
    Общий поток : 2270 Кбит/сек
    Название фильма : бонус - Я буду жить (1998)
    Программа кодирования : Lavf53.18.0
    Правообладатель : MOSLG,A445

    Видео
    Идентификатор : 0
    Формат : xvid
    Идентификатор кодека : xvid
    Продолжительность : 3 м. 47 с.
    Битрейт : 2002 Кбит/сек
    Ширина : 720 пикселей
    Высота : 420 пикселей
    Соотношение сторон : 1,714
    Частота кадров : 25,000 кадров/сек
    Бит/(Пиксели*Кадры) : 0.265
    Размер потока : 54,2 Мбайт (88%)

    Аудио
    Идентификатор : 1
    Формат : MPEG Audio
    Версия формата : Version 1
    Профиль формата : Layer 3
    Режим : Joint stereo
    Идентификатор кодека : 55
    Идентификатор кодека/Подсказка : MP3
    Продолжительность : 3 м. 47 с.
    Вид битрейта : Постоянный
    Битрейт : 256 Кбит/сек
    Каналы : 2 канала
    Частота : 44,1 КГц
    Метод сжатия : С потерями
    Размер потока : 6,93 Мбайт (11%)
    Выравнивание : Соединение по промежуткам
    Продолжительность промежутка : 26 мс. (0,65 видеокадр)
    Библиотека кодирования : LAME3.99.5
    Язык : Не определен

    Общее
    Полное имя : D:КлипыDolphin_-_Я_буду_жить_Live_2000AVI_(звук_6_кан)_ 4клипабонус- Радиоволна.avi
    Формат : AVI
    Формат/Информация : Audio Video Interleave
    Размер файла : 63,6 Мбайт
    Продолжительность : 4 м. 3 с.
    Общий поток : 2194 Кбит/сек
    Название фильма : Radiowave
    Режиссёр : Dolphin
    Жанр : музыкальные клипы
    Программа кодирования : Lavf53.18.0
    Правообладатель : MOSLG,A445

    Видео
    Идентификатор : 0
    Формат : xvid
    Идентификатор кодека : xvid
    Продолжительность : 4 м. 3 с.
    Битрейт : 1926 Кбит/сек
    Ширина : 720 пикселей
    Высота : 530 пикселей
    Соотношение сторон : 4:3
    Частота кадров : 25,000 кадров/сек
    Бит/(Пиксели*Кадры) : 0.202
    Размер потока : 55,8 Мбайт (88%)

    Аудио
    Идентификатор : 1
    Формат : MPEG Audio
    Версия формата : Version 1
    Профиль формата : Layer 3
    Режим : Joint stereo
    Расширение режима : MS Stereo
    Идентификатор кодека : 55
    Идентификатор кодека/Подсказка : MP3
    Продолжительность : 4 м. 3 с.
    Вид битрейта : Постоянный
    Битрейт : 256 Кбит/сек
    Каналы : 2 канала
    Частота : 44,1 КГц
    Метод сжатия : С потерями
    Размер потока : 7,42 Мбайт (12%)
    Выравнивание : Соединение по промежуткам
    Продолжительность промежутка : 26 мс. (0,65 видеокадр)
    Библиотека кодирования : LAME3.99.5
    Язык : Не определен


    Скриншоты

    Залил: MOSLG
    Размер: 1.15 GB (1235705804 Bytes)
    загрузка...
    Рейтинг →
     (голосов: 1, оценка 5/5, голосовать можно 1 раз )

    Другие торренты по теме:

  • Дельфин - Я буду жить (2000) DVDRip
  • Дельфин - Андрей (2015) MP3
  • Дельфин - Она (2016) FLAC


    • Комментарии (0):

      Информация

      Информация

        Посетители, находящиеся в группе Гости, не могут оставлять комментарии в данной новости.

        ↓ Меню



        ↓ Опрос

        А Вы добавили сайт в закладки?
        Да
        Не


        Top 10 за месяц (Музыка)