.
Авторизация | Регистрация
Хочешь лучшие торренты? Добавь свой email!
Добавить
» » Джанго - Была не была (2007) FLAC скачать торрент бесплатно




    Джанго - Была не была (2007) FLAC скачать торрент бесплатно

    Опубликовал: Админ | Дата: 27-02-2015, 11:09 | Просмотров: 330



    Название: Была не была
    Исполнитель: Джанго
    Год: 2007
    Жанр: Pop, Rock

    Продолжительность: 55:32
    Формат/Кодек: FLAC
    Битрейт аудио: Lossless(image .cue)


    Трек-лист

    01. Была не была (3:53)
    02. Вчера сегодня завтра (3:56)
    03. Папаган (3:24)
    04. Холодная весна (3:12)
    05. Сожги это фото (5:11)
    06. Возвращайся, ты слишком далеко (3:49)
    07. Венгерка (3:37)
    08. Пальтецо (4:06)
    09. Тринадцать серебраных лун (3:42)
    10. Метель (2:49)
    Бонус
    11. До свиданься, Лондон (3:54)
    12. Гуляй - гроза (3:48)
    13. Серебрится дорога (3:23)
    14. Возвращайся, ты слишком далеко (ремикс) (3:53)
    15. Дорогой длинною (2:52)
    LOG
    Exact Audio Copy V0.99 prebeta 5 from 4. May 2009

    Отчёт EAC об извлечении, выполненном 4. июня 2011, 18:14

    Джанго / Была не была

    Дисковод: ASUS DRW-2014S1T Adapter: 2 ID: 1

    Режим чтения : Достоверность
    Использование точного потока : Да
    Отключение кэша аудио : Да
    Использование указателей C2 : Нет

    Коррекция смещения при чтении : 6
    Способность читать области Lead-in и Lead-out : Нет
    Заполнение пропущенных сэмплов тишиной : Да
    Удаление блоков с тишиной в начале и конце : Нет
    При вычислениях CRC использовались нулевые сэмплы : Да
    Интерфейс : Встроенный Win32-интерфейс для Win NT/2000

    Выходной формат : Пользовательский кодировщик
    Выбранный битрейт : 1024 kBit/s
    Качество : Высокий
    Добавление ID3-тэга : Нет
    Утилита сжатия : C:Program Files (x86)Exact Audio CopyFLACFLAC.EXE
    Дополнительные параметры : -8 -V -T ARTIST=%a -T TITLE=%t -T ALBUM=%g -T DATE=%y -T TRACKNUMBER=%n -T GENRE=%m -T COMMENT=%e %s -o %d

    TOC извлечённого CD

    Трек | Старт | Длительность | Начальный сектор | Конечный сектор
    ---------------------------------------------------------------------
    1 | 0:00.00 | 3:53.20 | 0 | 17494
    2 | 3:53.20 | 3:55.43 | 17495 | 35162
    3 | 7:48.63 | 3:24.34 | 35163 | 50496
    4 | 11:13.22 | 3:12.14 | 50497 | 64910
    5 | 14:25.36 | 5:10.44 | 64911 | 88204
    6 | 19:36.05 | 3:49.29 | 88205 | 105408
    7 | 23:25.34 | 3:37.12 | 105409 | 121695
    8 | 27:02.46 | 4:06.03 | 121696 | 140148
    9 | 31:08.49 | 3:42.15 | 140149 | 156813
    10 | 34:50.64 | 2:48.64 | 156814 | 169477
    11 | 37:39.53 | 3:53.56 | 169478 | 187008
    12 | 41:33.34 | 3:48.29 | 187009 | 204137
    13 | 45:21.63 | 3:23.17 | 204138 | 219379
    14 | 48:45.05 | 3:53.30 | 219380 | 236884
    15 | 52:38.35 | 2:52.18 | 236885 | 249802

    Характеристики диапазона извлечения и сообщения об ошибках

    Выбранный диапазон

    Имя файла C:UserspapezDesktopДжанго - Была не была.wav

    Пиковый уровень 100.0 %
    Качество диапазона 100.0 %
    CRC теста 7F83A086
    CRC копии 7F83A086
    Копирование... OK

    Ошибок не произошло

    AccurateRip: сводка

    Трек 1 точность не определена (достоверность 1) ACF917DD, AccurateRip вернул 51447BAB
    Трек 2 точность не определена (достоверность 1) 103BF20C, AccurateRip вернул A0CC5556
    Трек 3 точность не определена (достоверность 1) 9C054EAA, AccurateRip вернул 44B7425E
    Трек 4 точность не определена (достоверность 1) 6219B28C, AccurateRip вернул 770896A2
    Трек 5 точность не определена (достоверность 1) DC717B5B, AccurateRip вернул C8E54DF2
    Трек 6 точность не определена (достоверность 1) BF41F60E, AccurateRip вернул 594157AC
    Трек 7 точность не определена (достоверность 1) E81E7DE7, AccurateRip вернул EB717513
    Трек 8 точность не определена (достоверность 1) 14D2966B, AccurateRip вернул D7EAF6A1
    Трек 9 точность не определена (достоверность 1) 4639619B, AccurateRip вернул 4B2F96C9
    Трек 10 точность не определена (достоверность 1) 1C561C52, AccurateRip вернул E4952338
    Трек 11 точность не определена (достоверность 1) F6CD2482, AccurateRip вернул 961DA550
    Трек 12 точность не определена (достоверность 1) DE863131, AccurateRip вернул 47ED4938
    Трек 13 точность не определена (достоверность 1) 3E915E34, AccurateRip вернул 1F315DB8
    Трек 14 точность не определена (достоверность 1) 8F13E046, AccurateRip вернул D79FB63D
    Трек 15 точность не определена (достоверность 1) 3FD37079, AccurateRip вернул 9A3E681F

    Ни один трек не прошёл проверки на точность
    В вашей базе может быть иной вариант штамповки диска

    Конец отчёта

    Залил: Dim-0174
    Размер: 402.39 MB (421939145 Bytes)
    загрузка...
    Рейтинг →
     (голосов: 1, оценка 4/5, голосовать можно 1 раз )

    Другие торренты по теме:

  • Джанго освобожденный / Django Unchained (2012) DVDScr | A
  • OST. Джанго освобожденный / Django Unchained (2012) MP3
  • Сукияки Вестерн Джанго / Sukiyaki Western Django (2007) BDRip 1080p | FfClub
  • Джанго - Дискография (2007-2013) Opus
  • Джанго, стреляй! / Se sei vivo spara / Django Kill... If You Live, Shoot! (1967) BDRip от HQCLUB скачать через торрент бесплатно
  • Джанго - Выше. Еще (2013) MP3 скачать через торрент бесплатно
  • Джанго освобожденный / Django Unchained (2012) HDRip | КПК | A скачать через торрент бесплатно
  • Джанго, прощай! / Texas, addio (1966) DVDRip от Кинорадиомагия | P


    • Комментарии (0):

      Информация

      Информация

        Посетители, находящиеся в группе Гости, не могут оставлять комментарии в данной новости.

        ↓ Меню



        ↓ Опрос

        А Вы добавили сайт в закладки?
        Да
        Не


        Top 10 за месяц (Музыка)