.
Авторизация | Регистрация
Хочешь лучшие торренты? Добавь свой email!
Добавить
» » Концерт - Большая свадьба на Русском радио Украина (2017) DVB скачать торрент бесплатно




    Концерт - Большая свадьба на Русском радио Украина (2017) DVB скачать торрент бесплатно

    Опубликовал: Админ | Дата: 1-12-2017, 11:00 | Просмотров: 0



    Направление: POP
    Год выпуска выпуска: 2017
    Время прослушивания: 01: 28: 18

    Описание
    Концерт на Русском радио Украина, в котором приняли участие Ирина Билык, Наталья Могилевская, Ольга Полякова, Олег Винник и другие популярные аристы украинской эстрады. Поток со спутника без перекодировки.
    Формат: MPG
    Качество: DVB
    Видео кодек: MPEG-2
    Аудио кодек: MP2
    Видео: MPEG-2, ~ 5 300 Kbps, 720x576@1024x576 (16: 9), 25fps
    Аудио: MP2, 48000Hz, 2ch, 320 kbps
    MedaInfo
    Svadba_2017.mpg
    Format : MPEG-PS
    File size : 3.60 GiB
    Duration : 1 h 28 min
    Overall bit rate mode : Variable
    Overall bit rate : 5 831 kb/s
    Video
    ID : 224 (0xE0)
    Format : MPEG Video
    Format version : Version 2
    Format profile : Main@Main
    Format settings : CustomMatrix/BVOP
    Format settings, BVOP : Yes
    Format settings, Matrix : Custom
    Format settings, GOP : Variable
    Format settings, picture structure : Frame
    Duration : 1 h 28 min
    Bit rate mode : Variable
    Bit rate : 5 395 kb/s
    Maximum bit rate : 15.0 Mb/s
    Width : 720 pixels
    Height : 576 pixels
    Display aspect ratio : 16: 9
    Frame rate : 25.000 FPS
    Standard : PAL
    Color space : YUV
    Chroma subsampling : 4: 2: 0
    Bit depth : 8 bits
    Scan type : Interlaced
    Scan order : Top Field First
    Compression mode : Lossy
    Bits/(Pixel*Frame) : 0.520
    Stream size : 3.33 GiB (93%)
    Audio
    ID : 192 (0xC0)
    Format : MPEG Audio
    Format version : Version 1
    Format profile : Layer 2
    Duration : 1 h 28 min
    Bit rate mode : Constant
    Bit rate : 320 kb/s
    Channel(s) : 2 channels
    Sampling rate : 48.0 kHz
    Compression mode : Lossy
    Stream size : 202 MiB (5%)
    Скриншоты

    Размер скачиваемого торрента: 3.60 GB (3862110208 Bytes)

    Концерт - Большая свадьба на Русском радио Украина (2017) DVB
    загрузка...
    Рейтинг →
     (голосов: 1, оценка 4/5, голосовать можно 1 раз )

    Другие торренты по теме:

  • Весна романса. Концерт в Санкт-Петербурге. Праздничный Концерт (2013) DVB от Mydimka
  • Скрябин. Концерт памяти / Скрябін. Концерт памяті (2015) WEB-DLRip
  • Концерт памяти Кузьмы Скрябина / Скрябін. Концерт памяті (2015) WEB-DLRip 720p
  • Скрябин. Концерт памяти / Скрябін. Концерт памяті (2015) WEB-Rip 1080p
  • Концерт на экране (Фильм-концерт) / 1940 / РУ / SATRip
  • Валерий Головко - Авторский концерт Победа / Исповедь / Одиночество (2015) DVB от AND03AND
  • Концерт к 25-летию Казначейству России (2017) HDTV 1080i
  • ВИА Синяя птица - Концерт на Сейшелах (1985) WEBRip-AVC


    • Комментарии (0):

      Информация

      Информация

        Посетители, находящиеся в группе Гости, не могут оставлять комментарии в данной новости.

        ↓ Меню



        ↓ Опрос

        А Вы добавили сайт в закладки?
        Да
        Не


        Top 10 за месяц (Музыка)