.
Авторизация | Регистрация
Хочешь лучшие торренты? Добавь свой email!
Добавить
» » Григорий Лепс - Концерт ТыЧегоТакойСерьёзный. Полная версия (2017) CAMRip 1080p скачать торрент бесплатно




    Григорий Лепс - Концерт ТыЧегоТакойСерьёзный. Полная версия (2017) CAMRip 1080p скачать торрент бесплатно

    Опубликовал: Админ | Дата: 27-11-2017, 11:00 | Просмотров: 0



    Автор/Группа: Григорий Лепс
    Направление: POP
    Год выпуска выпуска: 2017
    Время прослушивания: 02: 32: 52
    Доп. информация: Съёмка на одну камеру, звук с камеры.
    Формат: MKV
    Качество: CAMRip 1080p
    Видео кодек: H.264
    Аудио кодек: AC-3
    Видео: H.264 1920x1080 (16: 9) 25fps 3 253 Kbps
    Аудио: AC-3 48000Hz, 2ch, 192 kbps
    MedaInfo
    Complete name : D: Leps_18.11.17.mkv
    Format : Matroska
    Format version : Version 4/Version 2
    File size : 3.71 GiB
    Duration : 2 h 32 min
    Overall bit rate : 3 475 kb/s
    Encoded date : UTC 2017-11-26 11: 16: 56
    Writing application : mkvmerge v8.3.0 (;Over the Horizon;) 64bit
    Writing library : libebml v1.3.1 + libmatroska v1.4.2
    Video
    ID : 1
    Format : AVC
    Format/Info : Advanced Video Codec
    Format profile : High@L4
    Format settings, CABAC : Yes
    Format settings, ReFrames : 3 frames
    Codec ID : V_MPEG4/ISO/AVC
    Duration : 2 h 32 min
    Bit rate : 3 281 kb/s
    Width : 1 920 pixels
    Height : 1 080 pixels
    Display aspect ratio : 16: 9
    Frame rate mode : Constant
    Frame rate : 25.000 FPS
    Color space : YUV
    Chroma subsampling : 4: 2: 0
    Bit depth : 8 bits
    Scan type : Progressive
    Bits/(Pixel*Frame) : 0.063
    Stream size : 3.50 GiB (94%)
    Default : Yes
    Forced : No
    Color range : Limited
    Color primaries : BT.709
    Transfer characteristics : BT.709
    Matrix coefficients : BT.709
    Audio
    ID : 2
    Format : AC-3
    Format/Info : Audio Coding 3
    Format settings, Endianness : Big
    Codec ID : A_AC3
    Duration : 2 h 32 min
    Bit rate mode : Constant
    Bit rate : 192 kb/s
    Channel(s) : 2 channels
    Channel positions : Front: L R
    Sampling rate : 48.0 kHz
    Frame rate : 31.250 FPS (1536 spf)
    Bit depth : 16 bits
    Compression mode : Lossy
    Stream size : 210 MiB (6%)
    Service kind : Music and Effects
    Default : Yes
    Forced : No
    Скриншоты

    Размер скачиваемого торрента: 3.71 GB (3984071471 Bytes)

    Григорий Лепс - Концерт ТыЧегоТакойСерьёзный. Полная версия (2017) CAMRip 1080p
    загрузка...
    Рейтинг →
     (голосов: 1, оценка 4/5, голосовать можно 1 раз )

    Другие торренты по теме:

  • Григорий Лепс - Дуэты (2012) Mp3
  • Григорий Лепс - Самый лучший день. Юбилейный концерт (2013) HDTVRip от MediaClub
  • Григорий Лепс - Полный Вперед! (2013) DVDRip от MediaClub
  • Григорий Лепс - Полный Вперед! (2013) Blu-Ray 1080i скачать через торрент бесплатно
  • Григорий Лепс - Полный Вперед! (2013) BDRemux 1080i
  • Собчак живьём. Григорий Лепс (2014) SATRip от РиперАМ скачать через торрент бесплатно
  • Григорий Лепс - Лучшее бонус (1994-2013) MP3
  • Григорий Лепс - Дискография (1995-2013) MP3


    • Комментарии (0):

      Информация

      Информация

        Посетители, находящиеся в группе Гости, не могут оставлять комментарии в данной новости.

        ↓ Меню



        ↓ Опрос

        А Вы добавили сайт в закладки?
        Да
        Не


        Top 10 за месяц (Музыка)