.
Авторизация | Регистрация
Хочешь лучшие торренты? Добавь свой email!
Добавить
» » Алина Орлова - Концерт в Москве (2017) HDTVRip 1080p скачать торрент бесплатно




    Алина Орлова - Концерт в Москве (2017) HDTVRip 1080p скачать торрент бесплатно

    Опубликовал: Админ | Дата: 12-10-2017, 11:00 | Просмотров: 0



    Автор: Алина Орлова
    Направление: Folk-Rock, Indie-Rock, Psych-Folk
    Год выпуска выпуска: 2017
    Время прослушивания: 00: 19: 18

    Описание
    Алина Орлова (настоящая фамилия Орловская; род. 28 июня 1988, пос. Снечкус, Литовская ССР) — певица из Литвы. Поёт на литовском, русском и английском языках.
    В 2008 году состоялся релиз дебютного альбома Laukinis suo dingo (лит. Дикая собака динго). Название пластинки позаимствовано у одноименного произведения Рувима Фраермана, однако в названии присутствует игра слов: точный его перевод с литовского — Дикая собака пропала (тогда как название книги Фраермана правильнее было бы писать по-литовски как Laukinis suo dingas). Жанр песен Орловой британский музыкальный критик определяет как бодряще мрачный балтийский фолк-поп, а российский — как психофолк.
    Формат: MKV
    Качество: HDTVRip 1080p
    Видео кодек: H.264
    Аудио кодек: AAC
    Видео: H.264, 1920x1080, ~4 000 Kbps, 25fps
    Аудио: AAC, 2 ch, 128 Kbps, 44100Hz
    MedaInfo
    Orlova_11.10.17.mkv
    Format : Matroska
    Format version : Version 4/Version 2
    File size : 574 MiB
    Duration : 19 min 18 s
    Overall bit rate : 4 157 kb/s
    Encoded date : UTC 2017-10-11 21: 22: 51
    Writing application : mkvmerge v16.0.0 (;Protest;) 64-bit
    Writing library : libebml v1.3.5 + libmatroska v1.4.8
    Video
    ID : 1
    Format : AVC
    Format/Info : Advanced Video Codec
    Format profile : High@L5
    Format settings : CABAC/5 Ref Frames
    Format settings, CABAC : Yes
    Format settings, RefFrames : 5 frames
    Codec ID : V_MPEG4/ISO/AVC
    Duration : 19 min 18 s
    Bit rate : 4 000 kb/s
    Width : 1 912 pixels
    Original width : 1 920 pixels
    Height : 1 088 pixels
    Original height : 1 080 pixels
    Display aspect ratio : 16: 9
    Original display aspect ratio : 16: 9
    Frame rate mode : Variable
    Frame rate : 25.000 FPS
    Color space : YUV
    Chroma subsampling : 4: 2: 0
    Bit depth : 8 bits
    Scan type : Progressive
    Bits/(Pixel*Frame) : 0.077
    Stream size : 556 MiB (97%)
    Writing library : x264 core 148 r333 90a61ec
    Encoding settings : cabac=1/ref=5/deblock=1: 0: 0/analyse=0x3: 0x113/me=hex/subme=8/psy=1/psy_rd=1.00: 0.00/mixed_ref=1/me_range=16/chroma_me=1/trellis=2/8x8dct=1/cqm=0/deadzone=21, 11/fast_pskip=1/chroma_qp_offset=-2/threads=12/lookahead_threads=2/sliced_threads=0/nr=0/decimate=1/interlaced=0/bluray_compat=0/constrained_intra=0/bframes=3/b_pyramid=2/b_adapt=1/b_bias=0/direct=3/weightb=1/open_gop=0/weightp=2/keyint=250/keyint_min=25/scenecut=40/intra_refresh=0/rc_lookahead=50/rc=abr/mbtree=1/bitrate=4000/ratetol=1.0/qcomp=0.60/qpmin=0/qpmax=69/qpstep=4/ip_ratio=1.40/aq=1: 1.00
    Default : Yes
    Forced : No
    Audio
    ID : 2
    Format : AAC
    Format/Info : Advanced Audio Codec
    Format profile : LC
    Codec ID : A_AAC-2
    Duration : 19 min 18 s
    Bit rate : 130 kb/s
    Channel(s) : 2 channels
    Channel positions : Front: L R
    Sampling rate : 44.1 kHz
    Frame rate : 43.066 FPS (1024 SPF)
    Compression mode : Lossy
    Delay relative to video : 80 ms
    Stream size : 17.9 MiB (3%)
    Default : Yes
    Forced : No
    Скриншоты

    Размер скачиваемого торрента: 573.89 MB (601763584 Bytes)

    Алина Орлова - Концерт в Москве (2017) HDTVRip 1080p
    загрузка...
    Рейтинг →
     (голосов: 1, оценка 5/5, голосовать можно 1 раз )

    Другие торренты по теме:

  • Фестиваль детской художественной гимнастики Алина. Концерт (2013) HDTVRip
  • Фестиваль детской художественной гимнастики Алина. Концерт (2013) HDTV 1080i
  • Алина Артц - Music Story (2013) MP3 от BestSound ExKinoRay скачать через торрент бесплатно
  • Алина - itsmylife
  • Maestro и Алина - На побережье скачать через торрент бесплатно
  • Maestro и Алина - On the seashore скачать через торрент бесплатно


    • Комментарии (0):

      Информация

      Информация

        Посетители, находящиеся в группе Гости, не могут оставлять комментарии в данной новости.

        ↓ Меню



        ↓ Опрос

        А Вы добавили сайт в закладки?
        Да
        Не


        Top 10 за месяц (Музыка)