.
Авторизация | Регистрация
Хочешь лучшие торренты? Добавь свой email!
Добавить
» » Группа Кристалл - Выступление в яхт-клубе Адмирал (2013) CAMRip 720p скачать торрент бесплатно




    Группа Кристалл - Выступление в яхт-клубе Адмирал (2013) CAMRip 720p скачать торрент бесплатно

    Опубликовал: Админ | Дата: 3-10-2017, 11:01 | Просмотров: 0



    Автор/Группа: Алевтина Бердникова
    Направление: Pop
    Год выпуска выпуска: 2013
    Время прослушивания: 00: 10: 23

    Описание
    Выступление Алевтины Бердниковой и группы Кристалл в яхт-клубеАдмирал. Профессиональная cъёмка, звук с микшера.Автор музыки Виктор Могилатов(см.на постере).Прозвучали песни: Все еще будет, Вот и все, Подари мне эту ночь
    Формат: MKV
    Качество: CAMRip 720p
    Видео кодек: H.264
    Аудио кодек: AAC
    Видео: H.264, ~2 800 Kbps, 1280 x 720 (16: 9), 25 fps
    Аудио: AAC, 48000Hz, 2ch, 192 kbps
    MedaInfo
    Kristall_2013.mkv
    Format : Matroska
    Format version : Version 4/Version 2
    File size : 219 MiB
    Duration : 10 min 23 s
    Overall bit rate : 2 954 kb/s
    Encoded date : UTC 2017-10-02 19: 03: 11
    Writing application : mkvmerge v8.3.0 (;Over the Horizon;) 64bit
    Writing library : libebml v1.3.1 + libmatroska v1.4.2
    Video
    ID : 1
    Format : AVC
    Format/Info : Advanced Video Codec
    Format profile : High@L3.1
    Format settings, CABAC : Yes
    Format settings, ReFrames : 1 frame
    Format settings, GOP : M=1, N=60
    Codec ID : V_MPEG4/ISO/AVC
    Duration : 10 min 23 s
    Bit rate : 2 820 kb/s
    Width : 1 280 pixels
    Height : 720 pixels
    Display aspect ratio : 16: 9
    Frame rate mode : Constant
    Frame rate : 25.000 FPS
    Color space : YUV
    Chroma subsampling : 4: 2: 0
    Bit depth : 8 bits
    Scan type : Progressive
    Bits/(Pixel*Frame) : 0.122
    Stream size : 209 MiB (95%)
    Default : Yes
    Forced : No
    Color range : Limited
    Color primaries : BT.709
    Transfer characteristics : BT.709
    Matrix coefficients : BT.709
    Audio
    ID : 2
    Format : AAC
    Format/Info : Advanced Audio Codec
    Format profile : LC
    Codec ID : A_AAC
    Duration : 10 min 22 s
    Bit rate : 132 kb/s
    Channel(s) : 2 channels
    Channel positions : Front: L R
    Sampling rate : 48.0 kHz
    Frame rate : 46.875 FPS (1024 spf)
    Compression mode : Lossy
    Stream size : 9.75 MiB (4%)
    Default : Yes
    Forced : No
    Скриншоты

    Размер скачиваемого торрента: 219.42 MB (230079973 Bytes)

    Группа Кристалл - Выступление в яхт-клубе Адмирал (2013) CAMRip 720p
    загрузка...
    Рейтинг →
     (голосов: 1, оценка 5/5, голосовать можно 1 раз )

    Другие торренты по теме:

  • Диско-группа Кристалл - Коллекция (2012) MP3
  • Диско-группа Кристалл - Дискотека ночи (2012) FLAC скачать через торрент бесплатно
  • Диско-группа Кристалл - Коллекция (2012-2016) FLAC
  • Алевтина Бердникова (группа Кристалл) - Выступление в Бердске (2017) CAMRip-AVC


    • Комментарии (0):

      Информация

      Информация

        Посетители, находящиеся в группе Гости, не могут оставлять комментарии в данной новости.

        ↓ Меню



        ↓ Опрос

        А Вы добавили сайт в закладки?
        Да
        Не


        Top 10 за месяц (Музыка)