.
Авторизация | Регистрация
Хочешь лучшие торренты? Добавь свой email!
Добавить
» » Вадим Казаченко - Концерт в поселке Восточный (2017) CAMRip 720p скачать торрент бесплатно




    Вадим Казаченко - Концерт в поселке Восточный (2017) CAMRip 720p скачать торрент бесплатно

    Опубликовал: Админ | Дата: 1-10-2017, 11:01 | Просмотров: 0



    Автор/Группа: Вадим Казаченко
    Направление: POP
    Год выпуска выпуска: 2017
    Время прослушивания: 00: 59: 38
    Доп. информация: Любительская съёмка на одну камеру, звук с камеры.Выложил этот концерт потому, что здесь Вадим исполняет запрещенные для него песни Анатолия Розанова на стихи Сергея Кузнецова, которые на более крупной концертной площадке он врядли исполнит.
    Формат: MKV
    Качество: CAMRip 720p
    Видео кодек: H.264
    Аудио кодек: AAC
    Видео: H.264 1280x720 (16: 9) 25fps 2 253 Kbps
    Аудио: AAC 48000Hz, 2ch, 192 kbps

    Треклист
    1.Сто тысяч да
    2.Вишневый сад
    3.Красивая женщина
    4.Ты не пой, соловей
    5.Песня о черных розах
    6.Сезон любви
    7.Малыш
    8.Больно мне, больно
    9.На летящем коне
    10.Золотая
    11.Желтые розы
    12.Ах, какая женщина
    13.Белая метелица
    14.Благослови
    15.Прощай навеки последняя любовь
    MedaInfo
    Complete name : D: Kazachenko_2017.mkv
    Format : Matroska
    Format version : Version 4/Version 2
    File size : 1.02 GiB
    Duration : 59 min 38 s
    Overall bit rate : 2 444 kb/s
    Encoded date : UTC 2017-09-30 14: 03: 00
    Writing application : mkvmerge v8.3.0 (;Over the Horizon;) 64bit
    Writing library : libebml v1.3.1 + libmatroska v1.4.2
    Video
    ID : 1
    Format : AVC
    Format/Info : Advanced Video Codec
    Format profile : Main@L3.1
    Format settings, CABAC : Yes
    Format settings, ReFrames : 3 frames
    Codec ID : V_MPEG4/ISO/AVC
    Duration : 59 min 38 s
    Bit rate : 2 249 kb/s
    Width : 1 280 pixels
    Height : 720 pixels
    Display aspect ratio : 16: 9
    Frame rate mode : Constant
    Frame rate : 25.000 FPS
    Color space : YUV
    Chroma subsampling : 4: 2: 0
    Bit depth : 8 bits
    Scan type : Progressive
    Bits/(Pixel*Frame) : 0.098
    Stream size : 960 MiB (92%)
    Default : Yes
    Forced : No
    Color range : Limited
    Color primaries : BT.709
    Transfer characteristics : BT.709
    Matrix coefficients : BT.709
    Audio
    ID : 2
    Format : AAC
    Format/Info : Advanced Audio Codec
    Format profile : LC
    Codec ID : A_AAC
    Duration : 59 min 38 s
    Bit rate : 192 kb/s
    Channel(s) : 2 channels
    Channel positions : Front: L R
    Sampling rate : 48.0 kHz
    Frame rate : 46.875 FPS (1024 spf)
    Compression mode : Lossy
    Stream size : 82.0 MiB (8%)
    Language : English
    Default : Yes
    Forced : No
    Скриншоты

    Размер скачиваемого торрента: 1.02 GB (1093161409 Bytes)

    Вадим Казаченко - Концерт в поселке Восточный (2017) CAMRip 720p
    загрузка...
    Рейтинг →
     (голосов: 1, оценка 4/5, голосовать можно 1 раз )

    Другие торренты по теме:

  • Вадим Казаченко - Grand Collection (2013) FLAC
  • Вадим Казаченко - ...а мне не больно! (2011) DVD5 скачать через торрент бесплатно
  • Вадим Казаченко и группа Фристайл - Концерт в Степногорске (1989) CAMRip-AVC
  • Вадим Казаченко - Концерт в Уфе (2014) CAMRip-AVC


    • Комментарии (0):

      Информация

      Информация

        Посетители, находящиеся в группе Гости, не могут оставлять комментарии в данной новости.

        ↓ Меню



        ↓ Опрос

        А Вы добавили сайт в закладки?
        Да
        Не


        Top 10 за месяц (Музыка)