.
Авторизация | Регистрация
Хочешь лучшие торренты? Добавь свой email!
Добавить
» » Олег Винник - Концерт Моя душа (2017) DVB скачать торрент бесплатно




    Олег Винник - Концерт Моя душа (2017) DVB скачать торрент бесплатно

    Опубликовал: Админ | Дата: 28-08-2017, 11:01 | Просмотров: 10



    Автор/Группа: Олег Винник
    Направление: POP
    Год выпуска выпуска: 2017
    Время прослушивания: 01: 57: 04

    Описание
    Яркое шоу во дворце Украина, которым артист презентовал новую программу Моя душа.... Специально для концерта была разработана уникальная сценография, создающая неповторимую атмосферу для каждой песни. Вместе с суперхитами Счастье, Вовчиця, Плен, Нино на главной концертной площадке страны прозвучали 6 совершенно новых композиций Олега Винника, которые музыкант написал специально для выступления в Киеве. Не обошелся вечер и без сюрпризов. Приятной неожиданностью для публики стало появление на сцене специального гостя - легендарного Кевина МакКоя. Экс-солист евродиско-группы Bad Boys Blue исполнил знаменитый хит 80-х You;re Woman. А также преподнес специальный подарок, подготовленный совместно с Олегом, - премьеру песни Юный ангел, которая является кавер-версией суперхита группы Bad Boys Blue Pretty young girl. Музыканты исполнили композицию дуэтом на английском и русском языках.
    Музыка, слова и аранжировки Олега Винника
    Формат: MPG
    Качество: DVB
    Видео кодек: MPEG-2
    Аудио кодек: MP2
    Видео: MPEG-2, ~3500 Kbps, 704x576@1024x576 (16: 9), 25fps
    Аудио: MP2, 48000Hz, 2ch, 192 kbps

    Треклист
    1.Мое соло
    2.Моя душа
    3.Надкусили місяць зорі
    4.Ревность
    5.Каменная ночь
    6.Но раве можно тебя разлюбить?
    7.Біла голубка
    8.Параллели
    9.Выступление группы Bad Boys Blue
    10.Юный ангел-Олег Винник и Bad Boys Blue
    11.Не ты
    12.Здравствуй невеста!
    13.Больше не звони-Таисия Таюне
    14.Не питай у неба
    15.Лодочка
    16.Нино
    18.Летин запущенная пуля
    19.Кто я?
    20.Хочу на берег океана
    21.Дай, дай, дай
    22.КвІтка-Таисия Таюне
    23.Як я міг би жити без тебе?
    24.Я не устану
    25.Счастье
    26.Нино на бис
    MedaInfo
    General
    Complete name : D: Vinnik_2017.mpg
    Format : MPEG-PS
    File size : 3.08 GiB
    Duration : 1 h 57 min
    Overall bit rate mode : Variable
    Overall bit rate : 3 770 kb/s
    Writing library : (dvd5: Jun 16 2014)
    Video
    ID : 224 (0xE0)
    Format : MPEG Video
    Format version : Version 2
    Format profile : Main@Main
    Format settings, BVOP : Yes
    Format settings, Matrix : Custom
    Format settings, GOP : Variable
    Format settings, picture st : Frame
    Duration : 1 h 57 min
    Bit rate mode : Variable
    Bit rate : 3 503 kb/s
    Maximum bit rate : 15.0 Mb/s
    Width : 704 pixels
    Height : 576 pixels
    Display aspect ratio : 16: 9
    Frame rate : 25.000 FPS
    Standard : PAL
    Color space : YUV
    Chroma subsampling : 4: 2: 0
    Bit depth : 8 bits
    Scan type : Interlaced
    Scan order : Top Field First
    Compression mode : Lossy
    Bits/(Pixel*Frame) : 0.346
    Time code of first frame : 00: 00: 00: 00
    Time code source : Group of pictures t_head
    GOP, Open/Closed : Open
    Stream size : 2.86 GiB (93%)
    Writing library : (dvd5: Jun 16 2014)
    Audio
    ID : 192 (0xC0)
    Format : MPEG Audio
    Format version : Version 1
    Format profile : Layer 2
    Duration : 1 h 57 min
    Bit rate mode : Constant
    Bit rate : 192 kb/s
    Channel(s) : 2 channels
    Sampling rate : 48.0 kHz
    Compression mode : Lossy
    Stream size : 161 MiB (5%)
    Скриншоты


    Размер скачиваемого торрента: 3.08 GB (3310184448 Bytes)

    Олег Винник - Концерт Моя душа (2017) DVB
    загрузка...
    Рейтинг →
     (голосов: 1, оценка 3/5, голосовать можно 1 раз )

    Другие торренты по теме:

  • Олег Винник - Клипография (2011-2013) WEBRip 720p, 480p скачать через торрент бесплатно
  • Олег Винник - Счастье (2013) MP3 от BestSound ExKinoRay
  • Олег Винник - Концерт. Я не устану (2016) DVB


    • Комментарии (0):

      Информация

      Информация

        Посетители, находящиеся в группе Гости, не могут оставлять комментарии в данной новости.

        ↓ Меню



        ↓ Опрос

        А Вы добавили сайт в закладки?
        Да
        Не


        Top 10 за месяц (Музыка)