.
Авторизация | Регистрация
Хочешь лучшие торренты? Добавь свой email!
Добавить
» » Оз: Возвращение в Изумрудный Город / Legends of Oz: Dorothys Return (2013) BDRip 1080 от SuperMin скачать торрент бесплатно




    Оз: Возвращение в Изумрудный Город / Legends of Oz: Dorothys Return (2013) BDRip 1080 от SuperMin скачать торрент бесплатно

    Опубликовал: Админ | Дата: 29-05-2015, 03:04 | Просмотров: 124


    Детально о кино
    Русское название: Оз: Возвращение в Изумрудный Город
    Русское название в мировом прокате: Legends of Oz: Dorothy;s Return
    Создали в: 2013
    Категория жанра: мультфильм, мюзикл, семейный
    Главный режиссер: Уилл Финн, Дэн Ст. Пьер

    Актеры
    Лиа Мишель, Патрик Стюарт, Джеймс Белуши, Дэн Эйкройд, Келси Грэммер, Меган Хилти, Хью Дэнси, Оливер Платт, Бернадетт Питерс, Мартин Шорт

    Сюжет фильма

    Дороти снова магическим образом переносится в страну Оз, чтобы спасти от беды ее жителей. Но оказывается, что старые друзья Дороти — Страшила, Железный Дровосек и Храбрый Лев — исчезли. Путешествуя по стране в поисках своих друзей, Дороти встречает новых попутчиков — Капитана Зефира, Фарфоровую Принцессу и филина Савву. Дороти должна помочь таким разным героям объединиться, чтобы одолеть нового злодея — шута Джестера, который хочет захватить страну Оз при помощи черной магии.
    Снималось в: США, Индия
    Время просмотра: 01: 32: 02
    Перевод текста: Профессиональный (полное дублирование)
    Файл
    Кодек для видео: h264
    Качество фильма: BDRip 1080 от SuperMin
    Информация о видео: 1920х1080 (16: 9), 5806 Kbps, 23.976 fps
    Информация о звуке: Русский (AC-3, 6ch, 448 kbps)
    Лог
    x264 info: frame I: 1399 Avg QP: 16.97 size: 237398
    x264 info: frame P: 39071 Avg QP: 18.46 size: 54519
    x264 info: frame B: 91937 Avg QP: 21.49 size: 17754
    x264 info: consecutive B-frames: 4.8% 9.5% 5.2% 70.2% 3.5% 3.9% 0.7% 1.7% 0.6%

    MI
    Video
    ID : 1
    Format : AVC
    Format/Info : Advanced Video Codec
    Format profile : High@L4.1
    Format settings, CABAC : Yes
    Format settings, ReFrames : 4 frames
    Codec ID : V_MPEG4/ISO/AVC
    Duration : 1h 32mn
    Bit rate : 5 806 Kbps
    Width : 1 920 pixels
    Height : 1 080 pixels
    Display aspect ratio : 16: 9
    Frame rate mode : Constant
    Frame rate : 23.976 fps
    Color space : YUV
    Chroma subsampling : 4: 2: 0
    Bit depth : 8 bits
    Scan type : Progressive
    Bits/(Pixel*Frame) : 0.117
    Stream size : 3.73 GiB (91%)
    Writing library : x264 core 146 r2538kMod 121396c
    Encoding settings : cabac=1/ref=4/deblock=1: 0: 0/analyse=0x3: 0x133/me=umh/subme=10/psy=1/fade_compensate=0.00/psy_rd=1.00: 0.00/mixed_ref=1/me_range=24/chroma_me=1/trellis=2/8x8dct=1/cqm=0/deadzone=21, 11/fast_pskip=0/chroma_qp_offset=-2/threads=2/lookahead_threads=1/sliced_threads=0/nr=0/decimate=1/interlaced=0/bluray_compat=0/constrained_intra=0/fgo=0/bframes=8/b_pyramid=2/b_adapt=2/b_bias=0/direct=1/weightb=1/open_gop=0/weightp=2/keyint=240/keyint_min=23/scenecut=40/intra_refresh=0/rc=crf/mbtree=0/crf=20.0000/qcomp=0.60/qpmin=0/qpmax=69/qpstep=4/ip_ratio=1.40/pb_ratio=1.30/aq=1: 1.00
    Default : Yes
    Forced : No
    Audio
    ID : 2
    Format : AC-3
    Format/Info : Audio Coding 3
    Mode extension : CM (complete main)
    Format settings, Endianness : Big
    Codec ID : A_AC3
    Duration : 1h 32mn
    Bit rate mode : Constant
    Bit rate : 448 Kbps
    Channel count : 6 channels
    Channel positions : Front: L C R, Side: L R, LFE
    Sampling rate : 48.0 KHz
    Bit depth : 16 bits
    Compression mode : Lossy
    Stream size : 295 MiB (7%)
    Title : Дублированный (CD Land)
    Language : Russian
    Default : Yes
    Forced : No

    Скриншоты

    Релиз подготовил: SuperMin
    Залил: SuperMin

    Онлайн видео Оз: Возвращение в Изумрудный Город


    Размер скачиваемого торрента: 4.10 GB (4405016803 Bytes)

    Оз: Возвращение в Изумрудный Город/Legends of Oz: Dorothys Return (2013) BDRip 1080 от SuperMin
    загрузка...
    Рейтинг →
     (голосов: 1, оценка 3/5, голосовать можно 1 раз )

    Другие торренты по теме:

  • Легенды страны Оз: Возвращение в Изумрудный Город (2014) HDRip
  • Оз: Возвращение в Изумрудный Город / Legends of Oz: Dorothys Return (2013) HDTVRip | Звук с TS скачать через торрент бесплатно
  • Оз: Возвращение в Изумрудный Город / Legends of Oz: Dorothys Return (2013) HDTVRip | Звук с TS скачать через торрент бесплатно
  • Возвращение в страну Оз / Return to Oz (1985) BDRip от Koenig | P


    • Комментарии (0):

      Информация

      Информация

        Посетители, находящиеся в группе Гости, не могут оставлять комментарии в данной новости.

        ↓ Меню



        ↓ Опрос

        А Вы добавили сайт в закладки?
        Да
        Не


        Top 10 за месяц (Мультфильмы)