.
Авторизация | Регистрация
Хочешь лучшие торренты? Добавь свой email!
Добавить
» » Девять жизней кота Фрица / The Nine Lives of Fritz the Cat (1974) DVDRip | A скачать торрент бесплатно




    Девять жизней кота Фрица / The Nine Lives of Fritz the Cat (1974) DVDRip | A скачать торрент бесплатно

    Опубликовал: Админ | Дата: 27-02-2015, 11:09 | Просмотров: 402



    Информация о фильме
    Название: Девять жизней кота Фрица
    Оригинальное название: The Nine Lives of Fritz the Cat
    Год выхода: 1974
    Жанр: мультфильм, комедия
    Режиссер: Роберт Тейлор
    В ролях: Скип Хиннант, Рева Роуз, Боб Холт, Роберт Риджли, Фред Смут, Суит Дик Уиттингтон, Люк Уолкер, Питер Лидз, Луиза Мориц, Ларри Мосс

    О фильме:
    Устав от своей громогласной и ворчливой супруги, безработный кот Фриц - любитель женских прелестей и хорошей, убойной марихуаны, сматывается из дома и отправляется на поиски смысла жизни. Всё бы ничего, но так как Фриц является типичным представителем семейства кошачьих, то количество его жизней (и, соответственно, их смыслов) измеряется числом 9! Вобщем, Фрица ждут самые невероятные, самые фантастические и порой смертельно-опасные приключения, в ходе которых коту придётся отправиться на Марс, поработать ординарцем у Адольфа Гитлера, посыльным у Президента США и многое другое.




    Страна: США
    Студия: Steve Krantz Productions, Cine Camera, American International Pictures
    Продолжительность: 01:16:31
    Перевод:
    Авторский (одноголосый) Хрусталев
    Авторский (одноголосый) Горчаков
    Авторский (одноголосый) Филонов

    Файл
    Кодек: XviD
    Качество: DVDRip
    Видео: 720x384, 2308 kbps, 23,976 fps, 0,348 Bits/(Pixel*Frame)
    Звук:
    AC3, 48 kHz, 128 kbps, 2 ch | AVO Хрусталев
    AC3, 48 kHz, 128 kbps, 2 ch | AVO Горчаков
    AC3, 44,1 kHz, 128 kbps, 2 ch | AVO Филонов
    Субтитры: Нет


    Релиз от:

    Автор рипа: _Bathory_

    Первая часть
    Скриншоты

    MediaInfo
    General
    Complete name : E:9.Zhiznej.Fritza.1974.DVDRip.by Bathory.avi
    Format : AVI
    Format/Info : Audio Video Interleave
    File size : 1.45 GiB
    Duration : 1h 16mn
    Overall bit rate : 2 705 Kbps

    Video
    ID : 0
    Format : MPEG-4 Visual
    Format profile : Advanced Simple@L5
    Format settings, BVOP : 2
    Format settings, QPel : No
    Format settings, GMC : No warppoints
    Format settings, Matrix : Default (H.263)
    Codec ID : XVID
    Codec ID/Hint : XviD
    Duration : 1h 16mn
    Bit rate : 2 308 Kbps
    Width : 720 pixels
    Height : 384 pixels
    Display aspect ratio : 1.85:1
    Frame rate : 23.976 fps
    Color space : YUV
    Chroma subsampling : 4:2:0
    Bit depth : 8 bits
    Scan type : Progressive
    Compression mode : Lossy
    Bits/(Pixel*Frame) : 0.348
    Stream size : 1.23 GiB (85%)
    Writing library : XviD 1.2.1 (UTC 2008-12-04)

    Audio #1
    ID : 1
    Format : AC-3
    Format/Info : Audio Coding 3
    Mode extension : CM (complete main)
    Format settings, Endianness : Big
    Codec ID : 2000
    Duration : 1h 16mn
    Bit rate mode : Constant
    Bit rate : 128 Kbps
    Channel count : 2 channels
    Channel positions : Front: L R
    Sampling rate : 48.0 KHz
    Bit depth : 16 bits
    Compression mode : Lossy
    Stream size : 70.1 MiB (5%)
    Alignment : Aligned on interleaves
    Interleave, duration : 64 ms (1.53 video frames)
    Interleave, preload duration : 192 ms
    Title : VTS_01_1 T80 2_0ch 192Kbps DELAY 0ms_new

    Audio #2
    ID : 2
    Format : AC-3
    Format/Info : Audio Coding 3
    Mode extension : CM (complete main)
    Format settings, Endianness : Big
    Codec ID : 2000
    Duration : 1h 16mn
    Bit rate mode : Constant
    Bit rate : 128 Kbps
    Channel count : 2 channels
    Channel positions : Front: L R
    Sampling rate : 48.0 KHz
    Bit depth : 16 bits
    Compression mode : Lossy
    Stream size : 70.1 MiB (5%)
    Alignment : Aligned on interleaves
    Interleave, duration : 64 ms (1.53 video frames)
    Interleave, preload duration : 192 ms
    Title : VTS_01_1 T81 2_0ch 192Kbps DELAY 0ms_new

    Audio #3
    ID : 3
    Format : AC-3
    Format/Info : Audio Coding 3
    Mode extension : CM (complete main)
    Format settings, Endianness : Big
    Codec ID : 2000
    Duration : 1h 16mn
    Bit rate mode : Constant
    Bit rate : 128 Kbps
    Channel count : 2 channels
    Channel positions : Front: L R
    Sampling rate : 44.1 KHz
    Bit depth : 16 bits
    Compression mode : Lossy
    Stream size : 70.1 MiB (5%)
    Alignment : Aligned on interleaves
    Interleave, duration : 70 ms (1.67 video frames)
    Interleave, preload duration : 208 ms
    Title : Девять жизней кота Фрица.avi_track_1__new


    Залил: _Bathory_
    Размер: 1.45 GB (1552389428 Bytes)
    загрузка...
    Рейтинг →
     (голосов: 1, оценка 4/5, голосовать можно 1 раз )

    Другие торренты по теме:

  • Девять жизней / Unstoppable (2004) BDRip от HQCLUB
  • Девять жизней / Nine Lives (2004) DVDRip скачать через торрент бесплатно
  • Девять жизней / Unstoppable (2004) BDRip 720p от MediaClub | P скачать через торрент бесплатно
  • Девять жизней Томаса Катца / Die neun leben des Tomas Katz (2000) DVDRip скачать через торрент бесплатно
  • Девять жизней Рождества / The Nine Lives of Christmas (2014) HDTVRip-AVC | Sub скачать через торрент бесплатно
  • Девять жизней / Nine Lives (2016) BDRip 720p | iTunes
  • Девять жизней / Nine Lives (2016) HDRip | iTunes
  • Девять жизней / Nine Lives (2016) HDRip от MegaPeer | iTunes


    • Комментарии (0):

      Информация

      Информация

        Посетители, находящиеся в группе Гости, не могут оставлять комментарии в данной новости.

        ↓ Меню



        ↓ Опрос

        А Вы добавили сайт в закладки?
        Да
        Не


        Top 10 за месяц (Мультфильмы)