.
Авторизация | Регистрация
Хочешь лучшие торренты? Добавь свой email!
Добавить
» » Тачки 3 / Cars 3 (2017) BDRip 720p от KinoGadget | iPad | Лицензия скачать торрент бесплатно




    Тачки 3 / Cars 3 (2017) BDRip 720p от KinoGadget | iPad | Лицензия скачать торрент бесплатно

    Опубликовал: Админ | Дата: 30-11-2017, 11:00 | Просмотров: 0



    Создали в: 2017
    Русское название в мировом прокате: Cars 3
    Снималось в: США
    Категория жанра: мультфильм, комедия, приключения, семейный, спорт
    Возраст: 6+
    Главный режиссер: Брайан Фи

    Актеры
    Оуэн Уилсон, Пол Ньюман, Бонни Хант, Ларри Кейбл Гай, Чич Марин, Тони Шэлоуб, Гуидо Куарони, Дженифер Льюис, Пол Дули, Майкл Уоллис
    Описание: Встречайте самого знаменитого гонщика всех времен, легенду гоночного трека Молнию Маккуина!
    Герой все еще продолжает показывать лучшие результаты на всех турнирах, однако победы даются ему не так легко, а конкуренция становится все жестче. Молнию Маккуина ждут захватывающие приключения, где он встретит новых друзей, а также поймет, что не только скорость и мощность мотора делают гонщика чемпионом.
    Время просмотра: 01: 42: 25
    Перевод текста: Дублированный Лицензия
    Оригинальная дорожка: нет
    Автор рипа:
    Качество фильма видео: BDRip 720p Исходник: Blu-Ray Remux (1080p) Тип видео: mp4
    Информация о видео кодек: MPEG-4 AVC Информация о звуке кодек: AAC
    Информация о видео: 1280x536 (2.40: 1) at 23.976 fps, AVC at 2 467 kbps avg, 0.150 bit/pixel
    Информация о звуке №1 Rus: 48.0 KHz, AAC, 2 ch, 160.0 Kbps
    Субтитры: нет
    Навигация по главам: есть
    Размер скачиваемого торрента: 1.89 GiB
    Log x264
    avs info: 1280x536p 1: 1 @ 24000/1001 fps (cfr)
    x264 info: using SAR=1/1
    x264 info: using cpu capabilities: MMX2 SSE2Fast SSSE3 Cache64
    x264 info: profile High, level 4.1
    x264 info: frame I: 1512 Avg QP: 15.36 size: 118093
    x264 info: frame P: 35745 Avg QP: 18.63 size: 25974
    x264 info: frame B: 110076 Avg QP: 22.44 size: 7162
    x264 info: consecutive B-frames: 2.9% 2.6% 13.2% 31.5% 18.6% 25.4% 5.7%
    x264 info: mb I I16..4: 5.7% 63.4% 30.9%
    x264 info: mb P I16..4: 2.0% 9.5% 1.6% P16..4: 39.0% 20.2% 12.7% 0.0% 0.0% skip: 14.8%
    x264 info: mb B I16..4: 0.2% 1.2% 0.2% B16..8: 33.5% 8.2% 2.0% direct: 3.5% skip: 51.2% L0: 42.5% L1: 45.1% BI: 12.4%
    x264 info: 8x8 transform intra: 70.4% inter: 65.2%
    x264 info: coded y, uvDC, uvAC intra: 71.9% 77.4% 46.0% inter: 16.8% 18.4% 3.6%
    x264 info: i16 v, h, dc, p: 19% 37% 6% 38%
    x264 info: i8 v, h, dc, ddl, ddr, vr, hd, vl, hu: 14% 29% 16% 4% 7% 5% 11% 5% 9%
    x264 info: i4 v, h, dc, ddl, ddr, vr, hd, vl, hu: 19% 30% 10% 5% 8% 6% 10% 5% 7%
    x264 info: i8c dc, h, v, p: 43% 34% 14% 9%
    x264 info: Weighted P-Frames: Y: 3.2% UV: 2.3%
    x264 info: ref P L0: 55.5% 11.2% 12.8% 6.1% 4.0% 3.8% 2.8% 1.9% 1.7% 0.1% 0.0%
    x264 info: ref B L0: 80.0% 9.2% 4.5% 2.1% 1.6% 1.3% 0.9% 0.3%
    x264 info: ref B L1: 96.1% 3.9%
    x264 info: kb/s: 2467.48
    encoded 147333 frames, 2.01 fps, 2467.48 kb/s

    MI
    General
    Complete name : ...Tachki-3-2017_KinoGadget.mp4
    Format : MPEG-4
    Format profile : Base Media
    Codec ID : isom (isom)
    File size : 1.89 GiB
    Duration : 1 h 42 min
    Overall bit rate mode : Variable
    Overall bit rate : 2 635 kb/s
    Movie name : Тачки 3 | KinoGadget
    Performer : Брайан Фи
    Director : Брайан Фи
    Actor : Оуэн Уилсон/Пол Ньюман/Бонни Хант/Ларри Кейбл Гай/Чич Марин/Тони Шэлоуб/Гуидо Куарони/Дженифер Льюис/Пол Дули/Майкл Уоллис
    Screenplay by : Кил Мюррэй/Боб Питерсон/Майк Рич
    Producer : Джон Лассетер/Кевин Реэр/Андреа Уоррен
    Genre : Adventure, Animation, Comedy, Family, Sports
    ContentType : Short Film
    Recorded date : 2017
    Encoded date : UTC 2017-11-29 10: 05: 13
    Tagged date : UTC 2017-11-29 10: 14: 32
    Cover : Yes
    ContentRating : mpaa|G|100|
    LongDeion : Встречайте самого знаменитого гонщика всех времен, легенду гоночного трека Молнию Маккуина!// Герой все еще продолжает показывать лучшие результаты на всех турнирах, однако победы даются ему не так легко, а конкуренция становится все жестче. Молнию Маккуина ждут захватывающие приключения, где он встретит новых друзей, а также поймет, что не только скорость и мощность мотора делают гонщика чемпионом.
    HDVideo : Yes
    Video
    ID : 1
    Format : AVC
    Format/Info : Advanced Video Codec
    Format profile : High@L4.1
    Format settings, CABAC : Yes
    Format settings, ReFrames : 9 frames
    Codec ID : avc1
    Codec ID/Info : Advanced Video Coding
    Duration : 1 h 42 min
    Bit rate : 2 467 kb/s
    Maximum bit rate : 18.4 Mb/s
    Width : 1 280 pixels
    Height : 536 pixels
    Display aspect ratio : 2.40: 1
    Frame rate mode : Constant
    Frame rate : 23.976 (24000/1001) FPS
    Color space : YUV
    Chroma subsampling : 4: 2: 0
    Bit depth : 8 bits
    Scan type : Progressive
    Bits/(Pixel*Frame) : 0.150
    Stream size : 1.77 GiB (94%)
    Writing library : x264 core 152 r2851 ba24899
    Encoding settings : cabac=1/ref=9/deblock=1: -2: -1/analyse=0x3: 0x113/me=umh/subme=7/psy=1/psy_rd=1.00: 0.00/mixed_ref=1/me_range=32/chroma_me=1/trellis=2/8x8dct=1/cqm=0/deadzone=21, 11/fast_pskip=0/chroma_qp_offset=-2/threads=3/lookahead_threads=1/sliced_threads=0/nr=0/decimate=1/interlaced=0/bluray_compat=0/constrained_intra=0/bframes=6/b_pyramid=2/b_adapt=2/b_bias=0/direct=1/weightb=1/open_gop=0/weightp=2/keyint=250/keyint_min=25/scenecut=40/intra_refresh=0/rc_lookahead=60/rc=crf/mbtree=1/crf=19.0/qcomp=0.60/qpmin=0/qpmax=69/qpstep=4/vbv_maxrate=62500/vbv_bufsize=78125/crf_max=0.0/nal_hrd=none/filler=0/ip_ratio=1.40/aq=1: 1.00
    Encoded date : UTC 2017-11-29 08: 52: 38
    Tagged date : UTC 2017-11-29 10: 06: 54
    Audio
    ID : 2
    Format : AAC
    Format/Info : Advanced Audio Codec
    Format profile : LC
    Codec ID : 40
    Duration : 1 h 42 min
    Bit rate mode : Variable
    Bit rate : 160 kb/s
    Maximum bit rate : 165 kb/s
    Channel(s) : 2 channels
    Channel positions : Front: L R
    Sampling rate : 48.0 kHz
    Frame rate : 46.875 FPS (1024 spf)
    Compression mode : Lossy
    Stream size : 117 MiB (6%)
    Language : Russian
    Encoded date : UTC 2017-11-29 08: 58: 59
    Tagged date : UTC 2017-11-29 10: 06: 54
    Menu
    00: 00: 00.000 : Champ McQueen
    00: 04: 57.255 : Storm Front
    00: 10: 54.988 : Crash
    00: 13: 59.422 : Wake-up Call
    00: 18: 15.344 : Phone Call
    00: 21: 07.641 : Modern Training
    00: 34: 08.880 : Deal
    00: 37: 52.103 : Beach
    00: 42: 44.812 : Crazy Eight
    00: 49: 44.398 : Cruz;s Dream
    00: 53: 57.734 : Facetime
    00: 58: 17.702 : Olive Branch
    00: 59: 27.522 : Smokey
    01: 02: 15.940 : Hud;s Win
    01: 06: 35.533 : It;s Over
    01: 08: 33.109 : Old School Training
    01: 15: 48.126 : Florida Arrival
    01: 20: 57.852 : Pit Stop
    01: 29: 42.418 : Victory Lane
    01: 32: 17.031 : Epilogue
    01: 34: 00.092 : End Credits

    Скриншоты


    Данный рип предназначен для просмотра на мобильных гаджетах с поддержкой формата mp4

    Онлайн видео Тачки 3


    Размер скачиваемого торрента: 1.89 GB (2024391219 Bytes)

    Тачки 3/Cars 3 (2017) BDRip 720p от KinoGadget | iPad | Лицензия
    загрузка...
    Рейтинг →
     (голосов: 1, оценка 5/5, голосовать можно 1 раз )

    Другие торренты по теме:

  • Тачки / Cars (2006) BDRip-AVC
  • OST - Тачки / Cars Dilogy (2006,2011) MP3
  • Тачки / Cars (2006) BDRip от HQCLUB
  • Тачки / Cars (2006) WEB-DL 1080p | Open Matte | D, P, A
  • Тачки Мультачки: Байки Мэтра / Cars Toon: Maters Tall Tales (2008 - 2011) BDRip 720p от potroks | D
  • Тачки 1, 2 / Cars 1, 2 (2006-2011) BDRip-AVC от potroks | D
  • Тачки 2 / Cars 2 (2011) BDRip 1080p от Youtracker | 3D-Video
  • Тачки: Дилогия / Cars: Dilogy (2006-2011) BDRip 1080p от NoLimits-Team


    • Комментарии (0):

      Информация

      Информация

        Посетители, находящиеся в группе Гости, не могут оставлять комментарии в данной новости.

        ↓ Меню



        ↓ Опрос

        А Вы добавили сайт в закладки?
        Да
        Не


        Top 10 за месяц (Мультфильмы)