.
Авторизация | Регистрация
Хочешь лучшие торренты? Добавь свой email!
Добавить
» » Маленькие пони / My Little Pony (1986-1987) DVDRip-AVC | D скачать торрент бесплатно




    Маленькие пони / My Little Pony (1986-1987) DVDRip-AVC | D скачать торрент бесплатно

    Опубликовал: Админ | Дата: 18-11-2017, 11:00 | Просмотров: 0



    Детально о кино
    Русское название: Маленькие пони
    Русское название в мировом прокате: My Little Pony
    Создали в: 1986-1987
    Категория жанра: мультфильм, мюзикл, фэнтези, семейный, музыка
    Главный режиссер: Warren Batchelder, Bob Bemiller, Brad Case
    Роли озвучивали: Беттина Буш, Кэти Ли, Нэнси Картрайт, Джинни МакСвэйн, Скотт Менвиль, Джинни Элиас, Чарльз Адлер, Сьюзэн Блу и другие
    Роли дублировали: Элеонора Прохницкая, Людмила Ильина, Всеволод Абдулов, Раиса Мухаметшина, Вадим Андреев и другие

    Сюжет фильма

    Вас ждут невероятные приключения маленьких пони, которые живут в удивительном сказочном мире, расположенном с другой стороны от радуги. Эти милые разноцветные создания с красивыми знаками на боках станут вашими друзьями и подарят новые красочные впечатления. Приятная графика, замечательные цветовые подборки и удачно выбранное звуковое оформление не оставят равнодушным ни одного ребенка.
    Список серий:

    Первый сезон любимого сериала:
    01.The End of Flutter Valley. Part 1/Конец долины грёз
    02.The End of Flutter Valley. Part 2
    03.The End of Flutter Valley. Part 3
    04.The End of Flutter Valley. Part 4
    05.The End of Flutter Valley. Part 5
    06.The End of Flutter Valley. Part 6
    07.The End of Flutter Valley. Part 7
    08.The End of Flutter Valley. Part 8
    09.The End of Flutter Valley. Part 9
    10.The End of Flutter Valley. Part 10
    11.The Ghost of Paradise Estate. Part 1/Привидение в райском домике
    12.The Ghost of Paradise Estate. Part 2
    13.The Ghost of Paradise Estate. Part 3
    14.The Ghost of Paradise Estate. Part 4
    15.The Great Rainbow Caper/Светящаяся радуга
    16.The Glass Princess. Part 1/Зеркальная принцесса
    17.The Glass Princess. Part 2
    18.The Glass Princess. Part 3
    19.The Glass Princess. Part 4
    20.Pony Puppy/Щенок в гостях у пони
    21.Bright Lights. Part 1/Огни рампы
    22.Bright Lights. Part 2
    23.Bright Lights. Part 3
    24.Bright Lights. Part 4
    25.Sweet Stuff and the Treasure Hunt/Сластёна и отгадка загадки
    26.The Return of Tambelon. Part 1/Возвращение Козлотура
    27.The Return of Tambelon. Part 2
    28.The Return of Tambelon. Part 3
    29.The Return of Tambelon. Part 4
    30.Little Piece of Magic/Немножко волшебства
    31.The Magic Coins. Part 1/Волшебные монетки
    32.The Magic Coins. Part 2
    33.The Magic Coins. Part 3
    34.The Magic Coins. Part 4
    35.Mish Mash Melee/Путаница
    36.Woe Is Me. Part 1/Встреча с Горюнчиком
    37.Woe Is Me. Part 2
    38.Fugitive Flowers. Part 1/Цветы-беглецы
    39.Fugitive Flowers. Part 2
    40.Would Be Dragonslayer/Победитель драконов
    41.Baby, It;s Cold Outside. Part 1/Малышка, на улице холодно
    42.Baby, It;s Cold Outside. Part 2
    43.Crunch the Rockdog. Part 1/Каменный пёс
    44.Crunch the Rockdog. Part 2
    45.The Revolt of Paradise Estate. Part 1/Восстание в райском домике
    46.The Revolt of Paradise Estate. Part 2
    47.Through the Door. Part 1/Таинственная дверь
    48.Through the Door. Part 2
    49.Escape from Midnight Castle. Part 1/Освобождение из замка тьмы
    50.Escape from Midnight Castle. Part 2
    Второй сезон любимого сериала:
    01.The Quest of the Princess Ponies. Part 1/Конкурс принцесс
    02.The Quest of the Princess Ponies. Part 2
    03.The Quest of the Princess Ponies. Part 3
    04.The Quest of the Princess Ponies. Part 4
    05.Spike;s Search/Поиск дракона
    06.The Golden Horseshoes. Part 1/Золотые подковки
    07.The Golden Horseshoes. Part 2
    08.Flight to Cloud Castle. Part 1/Полет к таинственному замку
    09.Flight to Cloud Castle. Part 2
    10.The Ice Cream Wars/Войны мороженого
    11.Somnambula. Part 1/Сомнамбула
    12.Somnambula. Part 2
    13.The Prince and the Ponies/Принц и пони
    14.Escape from Katrina. Part 1/Побег от Котрины
    15.Escape from Katrina. Part 2


    Снималось в: США
    Время просмотра: ~00: 10: 30 серия
    Перевод текста: Профессиональный (дублированный) студия Дубль по заказу телеканала 2х2, 1993 год
    Файл
    Кодек для видео: AVC/AC3
    Качество фильма: DVDRip-AVC
    Информация о видео: AVC, 710x480 @ 720x542 (4: 3), ~24.318 fps, ~2507 kbps
    Информация о звуке:
    Аудио Rus: AC3, 48 kHz, 2 ch, 192 kbps
    Аудио Eng: AC3, 48 kHz, 2 ch, 192 kbps
    Субтитры: нет
    Скриншоты
    MI
    Общее
    Уникальный идентификатор : 209878546097669553348429815178862556462 (0x9DE5233DC6F928429ACC655057BC752E)
    Полное имя : D: VideoMultsMy Little Pony 1986s01e01.The End of Flutter Valley. Part 1.mkv
    Формат : Matroska
    Версия формата : Version 4/Version 2
    Размер файла : 219 Мбайт
    Продолжительность : 10 м. 33 с.
    Общий поток : 2895 Кбит/сек
    Дата кодирования : UTC 2017-11-03 08: 45: 41
    Программа кодирования : mkvmerge v16.0.0 (;Protest;) 64-bit
    Библиотека кодирования : libebml v1.3.5 + libmatroska v1.4.8
    Видео
    Идентификатор : 1
    Формат : AVC
    Формат/Информация : Advanced Video Codec
    Профиль формата : High@L3.1
    Настройки формата : 2 Ref Frames
    Параметр CABAC формата : Нет
    Параметр RefFrames формата : 2 кадра
    Идентификатор кодека : V_MPEG4/ISO/AVC
    Продолжительность : 10 м. 33 с.
    Битрейт : 2507 Кбит/сек
    Ширина : 710 пикселей
    Высота : 480 пикселей
    Соотношение сторон : 4: 3
    Режим частоты кадров : Переменный
    Частота кадров : 24, 318 кадра/сек
    Цветовое пространство : YUV
    Субдискретизация насыщенности : 4: 2: 0
    Битовая глубина : 8 бит
    Тип развёртки : Прогрессивная
    Бит/(Пиксели*Кадры) : 0.303
    Размер потока : 189 Мбайт (87%)
    Библиотека кодирования : x264 core 130
    Настройки программы : cabac=0/ref=2/deblock=1: 0: 0/analyse=0x3: 0x113/me=hex/subme=7/psy=1/psy_rd=1.00: 0.00/mixed_ref=1/me_range=16/chroma_me=1/trellis=1/8x8dct=1/cqm=0/deadzone=21, 11/fast_pskip=1/chroma_qp_offset=-2/threads=12/lookahead_threads=2/sliced_threads=0/nr=0/decimate=1/interlaced=0/bluray_compat=0/constrained_intra=0/bframes=3/b_pyramid=0/b_adapt=1/b_bias=0/direct=1/weightb=0/open_gop=0/weightp=0/keyint=300/keyint_min=30/scenecut=40/intra_refresh=0/rc_lookahead=40/rc=crf/mbtree=1/crf=20.0/qcomp=0.60/qpmin=4/qpmax=69/qpstep=4/vbv_maxrate=9500/vbv_bufsize=9500/crf_max=0.0/nal_hrd=none/ip_ratio=1.40/aq=1: 1.00
    Язык : English
    Default : Да
    Forced : Нет
    Цветовой диапазон : Limited
    Основные цвета : BT.601 NTSC
    Характеристики трансфера : BT.709
    Коэффициенты матрицы : BT.601
    Аудио #1
    Идентификатор : 2
    Формат : AC-3
    Формат/Информация : Audio Coding 3
    Параметр Endianness формата : Big
    Идентификатор кодека : A_AC3
    Продолжительность : 10 м. 33 с.
    Вид битрейта : Постоянный
    Битрейт : 192 Кбит/сек
    Каналы : 2 канала
    Расположение каналов : Front: L R
    Частота : 48, 0 КГц
    Частота кадров : 31, 250 кадров/сек (1536 SPF)
    Битовая глубина : 16 бит
    Метод сжатия : С потерями
    Размер потока : 14, 5 Мбайт (7%)
    Язык : Russian
    ServiceKind/String : Complete Main
    Default : Да
    Forced : Нет
    Аудио #2
    Идентификатор : 3
    Формат : AC-3
    Формат/Информация : Audio Coding 3
    Параметр Endianness формата : Big
    Идентификатор кодека : A_AC3
    Продолжительность : 10 м. 33 с.
    Вид битрейта : Постоянный
    Битрейт : 192 Кбит/сек
    Каналы : 2 канала
    Расположение каналов : Front: L R
    Частота : 48, 0 КГц
    Частота кадров : 31, 250 кадров/сек (1536 SPF)
    Битовая глубина : 16 бит
    Метод сжатия : С потерями
    Размер потока : 14, 5 Мбайт (7%)
    Язык : English
    ServiceKind/String : Complete Main
    Default : Нет
    Forced : Нет
    Дополнительная информация:
    Нумерация серий соотвествует Кинопоиску, IMDB, YayPonies и ВикиФур, где этот мультсериал 1986 года имеет уточненное название Мой маленький пони и друзья/My Little Pony ;n Friends.
    Однако в Википедии, в начальных титрах, в дубляже и в описаниях альтернативных раздач он назван просто Маленькие пони/My Little Pony.
    Все рипы DVDRip-AVC без телелоготипов взяты с сайта YayPonies без изменений видеоряда.
    Серия Освобождение из замка тьмы/Escape from Midnight Castle является пилотной, в ней основные персонажи знакомятся друг с другом.
    Благодарность всем альтернативным раздачам мультсериала за источник профессионального дубляжа телеканала 2x2.
    Перевода к сериям Войны мороженого/The Ice Cream Wars и Побег от Котрины/Escape from Katrina не обнаружено, поэтому они отсутствуют в данной раздаче.
    Еще существует полнометражный мультфильм Мой маленький пони/My Little Pony: The Movie 1986 года выпуска, персонажи и события которого перекликаются с сериями Конец долины грёз/The End of Flutter Valley, но там другой сюжет и русского дубляжа к нему тоже нет.


    Онлайн видео Маленькие пони


    Размер скачиваемого торрента: 12.48 GB (13396100106 Bytes)

    Маленькие пони/My Little Pony (1986-1987) DVDRip-AVC | D
    загрузка...
    Рейтинг →
     (голосов: 1, оценка 4/5, голосовать можно 1 раз )

    Другие торренты по теме:

  • Маленькие ангелы: Рождественская сказка / Маленькие ангелы / Little Angels: The Brightest Christmas (1999) DVDRip от KinoRay Sheikn скачать через торрент бесплатно
  • Маленькие проказники / Little Busters! (2012) HDTVRip | AniFilm
  • Винни Пух и его друзья. Маленькие приключения / Mini Adventures of Winnie The Pooh (2011) DVB
  • Маленькие Эйнштейны / Little Einsteins (2005-2006) DVDRip, SATRip
  • Маленькие женщины / Little Women (1994) HDTVRip от Scarabey | P
  • Мои маленькие влюбленные / Мои первые увлечения / Mes petites amoureuses (1974) DVDRip-AVC от SergV | L1
  • Шансы большие и маленькие / Patatje Oorlog (2011) HDRip | L1
  • Маленькие смерти / Little Deaths (2011) HDRip


    • Комментарии (0):

      Информация

      Информация

        Посетители, находящиеся в группе Гости, не могут оставлять комментарии в данной новости.

        ↓ Меню



        ↓ Опрос

        А Вы добавили сайт в закладки?
        Да
        Не


        Top 10 за месяц (Мультфильмы)