.
Авторизация | Регистрация
Хочешь лучшие торренты? Добавь свой email!
Добавить
» » Рок Дог / Rock Dog (2016) BDRip 1080p от ExKinoRay | Лицензия скачать торрент бесплатно




    Рок Дог / Rock Dog (2016) BDRip 1080p от ExKinoRay | Лицензия скачать торрент бесплатно

    Опубликовал: Админ | Дата: 14-11-2017, 11:00 | Просмотров: 0



    Детально о кино
    Русское название: Рок Дог
    Русское название в мировом прокате: Rock Dog
    Создали в: 2016
    Категория жанра: Мультфильм, комедия, приключения, семейный, музыкальный, полнометражный
    Главный режиссер: Эш Браннон

    Актеры
    Люк Уилсон, Эдди Иззард, Дж.К. Симмонс, Льюис Блэк, Кенан Томпсон, Мэй Уитман, Хорхе Гарсиа, Мэтт Диллон, Сэм Эллиотт, Уилл Финн
    О фильме:
    Встречайте, новый герой отправляется покорять город зверей! Он — пёс Боуди, и он не унывает, несмотря ни на что. Ему на роду написано сторожить родную деревню от волков, а он мечтает стать учеником живой рок-легенды, кота по имени Энгус. Однако у Энгуса совсем другие планы, да и волки подстерегают за каждым углом. Но если не вешать хвост, то всё в твоих лапах!

    Снималось в: Китай, США
    Киностудия: Dream Factory Group, Eracme Entertainment, Huayi Tencent Entertainment Company, Mandoo Pictures
    Время просмотра: 01: 29: 56
    Перевод текста: Дублированный | Лицензия
    Файл
    Качество фильма: BDRip 1080p
    Информация о видео: MPEG-4 AVC, 1920x1080, 12.9 Mbit/s, 23.976 fps
    Информация о звуке:
    Информация о звуке #01: 48 kHz, DTS, 5.1, 1510 Kbps | Дублированный | RUS|
    Информация о звуке #02: 48 kHz, AC3, 5.1, 640 Kbps | Дублированный | RUS|
    Информация о звуке #03: 48 kHz, AC3, 5.1, 640 Kbps | Оригинал | ENG|
    Субтитры: Английские

    MI
    General
    Unique ID : 252495547351290008359768880373778278177 (0xBDF4DFA0C3D812D59665310E3E0EE721)
    Complete name : G: VideoSSDRock.Dog.2016.BDRip.1080p.ExKinoRay.mkv
    Format : Matroska
    Format version : Version 4/Version 2
    File size : 9.85 GiB
    Duration : 1 h 30 min
    Overall bit rate : 15.7 Mb/s
    Encoded date : UTC 2017-11-13 06: 42: 00
    Writing application : mkvmerge v17.0.0 (;Be Ur Friend;) 64-bit
    Writing library : libebml v1.3.5 + libmatroska v1.4.8
    Video
    ID : 1
    Format : AVC
    Format/Info : Advanced Video Codec
    Format profile : High@L4.1
    Format settings : CABAC/4 Ref Frames
    Format settings, CABAC : Yes
    Format settings, RefFrames : 4 frames
    Codec ID : V_MPEG4/ISO/AVC
    Duration : 1 h 29 min
    Bit rate : 12.9 Mb/s
    Width : 1 920 pixels
    Height : 1 080 pixels
    Display aspect ratio : 16: 9
    Frame rate mode : Constant
    Frame rate : 23.976 (24000/1001) FPS
    Color space : YUV
    Chroma subsampling : 4: 2: 0
    Bit depth : 8 bits
    Scan type : Progressive
    Bits/(Pixel*Frame) : 0.259
    Stream size : 8.09 GiB (82%)
    Writing library : x264 core 148 r2705+45 bdacf7a 7mod 8-bit@all X86_64
    Encoding settings : cabac=1/ref=4/deblock=1: -3: -3/analyse=0x3: 0x113/me=umh/subme=11/psy=1/fade_compensate=0.00/psy_rd=1.00: 0.05/mixed_ref=1/me_range=32/chroma_me=1/trellis=2/8x8dct=1/cqm=0/deadzone=21, 11/fast_pskip=0/chroma_qp_offset=-2/threads=24/lookahead_threads=4/sliced_threads=0/nr=0/decimate=1/interlaced=0/bluray_compat=0/constrained_intra=0/fgo=0/bframes=8/b_pyramid=2/b_adapt=2/b_bias=0/direct=3/weightb=1/open_gop=0/weightp=2/keyint=250/keyint_min=23/scenecut=40/intra_refresh=0/rc_lookahead=40/rc=crf/mbtree=0/crf=18.8000/qcomp=0.60/qpmin=0: 0: 0/qpmax=69: 69: 69/qpstep=4/vbv_maxrate=50000/vbv_bufsize=40000/crf_max=0.0/nal_hrd=none/filler=0/ip_ratio=1.40/pb_ratio=1.30/aq=4: 0.90/aq-sensitivity=10.00/aq-factor=1.00: 1.00: 1.00/aq2=0/aq3=0
    Language : English
    Default : Yes
    Forced : No
    Audio #1
    ID : 2
    Format : DTS
    Format/Info : Digital Theater Systems
    Mode : 16
    Format settings, Endianness : Big
    Codec ID : A_DTS
    Duration : 1 h 30 min
    Bit rate mode : Constant
    Bit rate : 1 509 kb/s
    Channel(s) : 6 channels
    Channel positions : Front: L C R, Side: L R, LFE
    Sampling rate : 48.0 kHz
    Frame rate : 93.750 FPS (512 SPF)
    Bit depth : 24 bits
    Compression mode : Lossy
    Stream size : 972 MiB (10%)
    Title : Dub License
    Language : Russian
    Default : Yes
    Forced : No
    Audio #2
    ID : 3
    Format : AC-3
    Format/Info : Audio Coding 3
    Format settings, Endianness : Big
    Codec ID : A_AC3
    Duration : 1 h 30 min
    Bit rate mode : Constant
    Bit rate : 640 kb/s
    Channel(s) : 6 channels
    Channel positions : Front: L C R, Side: L R, LFE
    Sampling rate : 48.0 kHz
    Frame rate : 31.250 FPS (1536 SPF)
    Bit depth : 16 bits
    Compression mode : Lossy
    Stream size : 412 MiB (4%)
    Title : Dub License
    Language : Russian
    Service kind : Complete Main
    Default : No
    Forced : No
    Audio #3
    ID : 4
    Format : AC-3
    Format/Info : Audio Coding 3
    Format settings, Endianness : Big
    Codec ID : A_AC3
    Duration : 1 h 29 min
    Bit rate mode : Constant
    Bit rate : 640 kb/s
    Channel(s) : 6 channels
    Channel positions : Front: L C R, Side: L R, LFE
    Sampling rate : 48.0 kHz
    Frame rate : 31.250 FPS (1536 SPF)
    Bit depth : 16 bits
    Compression mode : Lossy
    Stream size : 412 MiB (4%)
    Title : Original
    Language : English
    Service kind : Complete Main
    Default : No
    Forced : No
    Text
    ID : 5
    Format : UTF-8
    Codec ID : S_TEXT/UTF8
    Codec ID/Info : UTF-8 Plain Text
    Duration : 1 h 29 min
    Bit rate : 69 b/s
    Count of elements : 1442
    Stream size : 45.8 KiB (0%)
    Title : SDH
    Language : English
    Default : No
    Forced : No
    Menu
    00: 00: 00.000 : en: 00: 00: 00.000
    00: 04: 59.883 : en: 00: 04: 59.883
    00: 11: 28.897 : en: 00: 11: 28.897
    00: 17: 51.153 : en: 00: 17: 51.153
    00: 23: 27.406 : en: 00: 23: 27.406
    00: 31: 10.827 : en: 00: 31: 10.827
    00: 35: 13.528 : en: 00: 35: 13.528
    00: 39: 05.927 : en: 00: 39: 05.927
    00: 45: 22.470 : en: 00: 45: 22.470
    00: 50: 30.694 : en: 00: 50: 30.694
    00: 55: 35.791 : en: 00: 55: 35.791
    00: 59: 20.599 : en: 00: 59: 20.599
    01: 04: 15.018 : en: 01: 04: 15.018
    01: 09: 00.511 : en: 01: 09: 00.511
    01: 12: 52.034 : en: 01: 12: 52.034
    01: 18: 57.524 : en: 01: 18: 57.524

    Релиз подготовил: Автор релиза:
    Подпишись на меня, кликни по картинке :


    Онлайн видео Рок Дог


    Размер скачиваемого торрента: 9.85 GB (10576689585 Bytes)

    Рок Дог/Rock Dog (2016) BDRip 1080p от ExKinoRay | Лицензия
    загрузка...
    Рейтинг →
     (голосов: 1, оценка 4/5, голосовать можно 1 раз )

    Другие торренты по теме:

  • Camp Rock: Музыкальные каникулы / Рок в летнем лагере / Camp Rock (2008) BDRip от HQCLUB
  • Camp Rock 2: Отчетный концерт / Рок в летнем лагере 2 / Camp Rock 2: The Final Jam (2010) BDRip от HQCLUB | Extended Edition
  • Camp Rock 2: Отчетный концерт / Camp Rock 2: The Final Jam (2010) BDRip 1080p от MediaClub | D
  • Рок на века / Rock of Ages (2012) BDRip-AVC от potroks | D, L1 | Extended
  • Стрелок с Чeрной скалы / Black Rock Shooter (2012) BDRIP
  • Стрелок с Черной скалы / Black Rock Shooter (2010) BDRip | L1
  • Aerosmith: Rock for the Rising Sun (2011) BDRip 720p
  • Скала / The Rock (1996) BDRip 1080p от TORRENTirk


    • Комментарии (0):

      Информация

      Информация

        Посетители, находящиеся в группе Гости, не могут оставлять комментарии в данной новости.

        ↓ Меню



        ↓ Опрос

        А Вы добавили сайт в закладки?
        Да
        Не


        Top 10 за месяц (Мультфильмы)