.
Авторизация | Регистрация
Хочешь лучшие торренты? Добавь свой email!
Добавить
» » Созданный в Бездне / Made in Abyss (2017) HDTVRip 720p | AniDub скачать торрент бесплатно




    Созданный в Бездне / Made in Abyss (2017) HDTVRip 720p | AniDub скачать торрент бесплатно

    Опубликовал: Админ | Дата: 7-11-2017, 11:00 | Просмотров: 0



    Детально о кино
    Русское название: Созданный в Бездне
    Русское название в мировом прокате: Made in Abyss
    Создали в: 2017
    Категория жанра: приключения, драма, фэнтези, фантастика
    Главный режиссер: Кодзима Масаюки
    Художник: Масуяма Осаму

    Актеры
    Томита Мию, Исэ Мария, Идзава Сиори, Охара Саяка, Тоёсаки Аки, Сакамото Маая

    Сюжет фильма

    Огромный лабиринт пещер, известный как Бездна, остался единственным местом в мире, не исследованным человеком. Никто не знает, как они глубоки и как устроены, какие необычные и удивительные создания их населяют, какие сокровища хранят их недра. Поколения увлеченных исследователей притягивали эти неизведанные глубины. Люди таких смельчаков прозвали рейдерами пещер.
    В Осу, городе на окраинах Бездны, живет сирота Рико, мечтающая стать великим исследователем пещер, как и её мать. Однажды, во время очередной вылазки в мрачные глубины пещер, Рико обнаруживает мальчика, который оказался роботом...

    World Art|MAL
    Снималось в: Япония
    Киностудия: Cinema Citrus
    Время просмотра: 00: 24: 00
    Язык: Русский, Японский
    Перевод текста: Любительский (двухголосый, закадровый)
    Файл
    Качество фильма: HDTVRip
    Тип видео: MKV
    Кодек для видео: H.264
    Информация о звуке кодек: AAC
    Информация о видео: 1280x720, 23.976 fps, 1900 kbps
    Информация о звуке RUS: 48.0 kHz, AAC, 2 ch, 192 kbps - AniDub
    Информация о звуке JAP: 48.0 kHz, AAC, 2 ch, 192 kbps
    Субтитры: русские (встроенные полный перевод, ASS) - YakuSub Studio
    Озвучка
    Релиз подготовил:
    Тип перевода: RiZZ_fisher, Jade
    Перевод текста: Харитон Харько
    Тайминг и работа со звуком: Lonty
    Скриншоты

    Список серий
    01. Город Великой Ямы
    02. Праздник воскрешения
    03. Отправление
    04. Край бездны
    05. Испепелитель
    06. Лагерь искателей
    07. Незыблемая владычица
    08. Тренировка на выживание
    09. Великий разлом
    10. Проклятие и яд
    11. Наначи
    12. Истинная природа проклятия
    13. Претенденты
    MediaInfo
    General
    Format : Matroska
    Format version : Version 4/Version 2
    File size : 384 MiB
    Duration : 24 min
    Overall bit rate : 2 237 kb/s
    Encoded date : UTC 2017-11-04 12: 25: 33
    Writing application : mkvmerge v8.3.0 (;Over the Horizon;) 64bit
    Writing library : libebml v1.3.1 + libmatroska v1.4.2
    Video
    ID : 1
    Format : AVC
    Format/Info : Advanced Video Codec
    Format profile : High@L4.1
    Format settings, CABAC : Yes
    Format settings, ReFrames : 4 frames
    Codec ID : V_MPEG4/ISO/AVC
    Duration : 23 min
    Bit rate : 1 850 kb/s
    Width : 1 280 pixels
    Height : 720 pixels
    Display aspect ratio : 16: 9
    Frame rate mode : Constant
    Frame rate : 23.976 (24000/1001) FPS
    Color space : YUV
    Chroma subsampling : 4: 2: 0
    Bit depth : 8 bits
    Scan type : Progressive
    Bits/(Pixel*Frame) : 0.084
    Stream size : 317 MiB (83%)
    Writing library : x264 core 129 r2245+729M 1a52e03
    Encoding settings : cabac=1/ref=4/deblock=1: 1: -1/analyse=0x3: 0x113/me=umh/subme=9/psy=1/fade_compensate=0.00/psy_rd=1.00: 0.00/mixed_ref=1/me_range=24/chroma_me=1/trellis=2/8x8dct=1/cqm=0/deadzone=21, 11/fast_pskip=1/chroma_qp_offset=-2/threads=8/lookahead_threads=1/sliced_threads=0/nr=0/decimate=1/interlaced=0/bluray_compat=0/constrained_intra=0/fgo=0/bframes=9/b_pyramid=2/b_adapt=2/b_bias=0/direct=1/weightb=1/open_gop=0/weightp=2/keyint=240/keyint_min=24/scenecut=40/intra_refresh=0/rc=crf/mbtree=0/crf=17.5/qcomp=0.72/qpmin=0/qpmax=69/qpstep=4/ip_ratio=1.40/pb_ratio=1.30/aq=1: 0.85
    Default : Yes
    Forced : No
    Color range : Limited
    Color primaries : BT.709
    Transfer characteristics : BT.709
    Matrix coefficients : BT.709
    Audio #1
    ID : 2
    Format : AAC
    Format/Info : Advanced Audio Codec
    Format profile : LC
    Codec ID : A_AAC
    Duration : 24 min
    Bit rate : 192 kb/s
    Channel(s) : 2 channels
    Channel positions : Front: L R
    Sampling rate : 48.0 kHz
    Frame rate : 46.875 FPS (1024 spf)
    Compression mode : Lossy
    Stream size : 33.0 MiB (9%)
    Title : AniDub
    Language : Russian
    Default : Yes
    Forced : No
    Audio #2
    ID : 3
    Format : AAC
    Format/Info : Advanced Audio Codec
    Format profile : LC
    Codec ID : A_AAC
    Duration : 23 min
    Bit rate : 192 kb/s
    Channel(s) : 2 channels
    Channel positions : Front: L R
    Sampling rate : 48.0 kHz
    Frame rate : 46.875 FPS (1024 spf)
    Compression mode : Lossy
    Stream size : 33.0 MiB (9%)
    Title : Original
    Language : Japanese
    Default : No
    Forced : No
    Text
    ID : 4
    Format : ASS
    Codec ID : S_TEXT/ASS
    Codec ID/Info : Advanced Sub Station Alpha
    Duration : 23 min
    Bit rate : 126 b/s
    Count of elements : 314
    Compression mode : Lossless
    Stream size : 22.0 KiB (0%)
    Title : Полные субтитры
    Language : Russian
    Default : Yes
    Forced : No


    Онлайн видео Созданный в Бездне


    Размер скачиваемого торрента: 6.56 GB (7042926954 Bytes)

    Созданный в Бездне/Made in Abyss (2017) HDTVRip 720p | AniDub
    загрузка...
    Рейтинг →
     (голосов: 1, оценка 5/5, голосовать можно 1 раз )

    Другие торренты по теме:

  • Созданный в Бездне / Made in Abyss (2017) WEBRip 1080p | SUB
  • Созданный в Бездне / Made in Abyss (2017) WEBRip 720p | KANSAI Studio
  • Созданный в Бездне / Made in Abyss (2017) WEBRip 720p | KANSAI Studio
  • OST - Созданный в Бездне / Made in Abyss (2017) MP3


    • Комментарии (0):

      Информация

      Информация

        Посетители, находящиеся в группе Гости, не могут оставлять комментарии в данной новости.

        ↓ Меню



        ↓ Опрос

        А Вы добавили сайт в закладки?
        Да
        Не


        Top 10 за месяц (Мультфильмы)