.
Авторизация | Регистрация
Хочешь лучшие торренты? Добавь свой email!
Добавить
» » Гадкий я 3 / Despicable Me 3 (2017) BDRip от Seven | Лицензия скачать торрент бесплатно




    Гадкий я 3 / Despicable Me 3 (2017) BDRip от Seven | Лицензия скачать торрент бесплатно

    Опубликовал: Админ | Дата: 6-11-2017, 11:00 | Просмотров: 0



    Детально о кино:
    Русское название: Гадкий я 3
    Русское название в мировом прокате: Despicable Me 3
    Создали в: 2017
    Категория жанра: мультфильм, фантастика, боевик, комедия, приключения, семейный
    Главный режиссер: Эрик Гуильон/Eric Guillon, Кайл Балда/Kyle Balda, Пьер Коффан/Pierre Coffin

    Актеры
    Стив Карелл, Кристен Уиг, Трей Паркер, Миранда Косгров, Дэна Гайер, Пьер Коффан, Стив Кугэн, Джули Эндрюс, Дженни Слейт.

    Сюжет фильма
    Грядет третье пришествие. Многодетный суперагент, роковая красотка и бессмертные миньоны на подходе. Готовьтесь. Они будут править миром.
    Автор рипа: Seven
    Снималось в: США/Illumination Entertainment, Universal Pictures
    Время просмотра: 01: 29: 40
    Перевод текста: Профессиональный (полное дублирование) BD EUR
    + Оригинальная звуковая дорожка
    Субтитры: русские (форсированные, полные), английские (полные) (отдельно)
    Файл:
    Тип видео: AVI
    Качество фильма: BDRip (источник: BD-Remux/1080p)
    Информация о видео: 720x304 (2.37: 1), 23.976 fps, XviD build 73 ~2389 kbps avg, 0.46 bit/pixel
    Информация о звуке 1: 48 kHz, AC3 Dolby Digital, 3/2 (L, C, R, l, r) + LFE ch, ~448.00 kbps avg | RUS
    Информация о звуке 2: 48 kHz, AC3 Dolby Digital, 3/2 (L, C, R, l, r) + LFE ch, ~448.00 kbps avg | ENG
    Размер скачиваемого торрента: 2118.97 Mb (1/2 DVD-R)
    Скачать: Сэмпл

    Инфо
    Формат : AVI
    Формат/Информация : Audio Video Interleave
    Профиль формата : OpenDML
    Размер файла : 2, 07 Гбайт
    Продолжительность : 1 ч. 29 м.
    Общий поток : 3304 Кбит/сек
    Название фильма : Гадкий Я 3/Despicable Me 3 (2017)
    Программа кодирования : VirtualDubMod 1.5.10.2 (build 2540/release)
    Библиотека кодирования : VirtualDubMod build 2540/release
    Примечание : BDRip by Seven
    Видео
    Идентификатор : 0
    Формат : MPEG-4 Visual
    Профиль формата : Advanced Simple@L5
    Параметр BVOP формата : 1
    Параметр QPel формата : Нет
    Параметр GMC формата : Без точки перехода
    Параметр матрицы формата : Выборочная
    Идентификатор кодека : XVID
    Идентификатор кодека/Подсказка : XviD
    Продолжительность : 1 ч. 29 м.
    Битрейт : 2389 Кбит/сек
    Ширина : 720 пикселей
    Высота : 304 пикселя
    Соотношение сторон : 2, 35: 1
    Частота кадров : 23, 976 (24000/1001) кадра/сек
    Цветовое пространство : YUV
    Субдискретизация насыщенности : 4: 2: 0
    Битовая глубина : 8 бит
    Тип развёртки : Прогрессивная
    Метод сжатия : С потерями
    Бит/(Пиксели*Кадры) : 0.455
    Размер потока : 1, 50 Гбайт (72%)
    Библиотека кодирования : XviD 73
    Аудио #1
    Идентификатор : 1
    Формат : AC-3
    Формат/Информация : Audio Coding 3
    Параметр Endianness формата : Big
    Идентификатор кодека : 2000
    Продолжительность : 1 ч. 29 м.
    Вид битрейта : Постоянный
    Битрейт : 448 Кбит/сек
    Каналы : 6 каналов
    Расположение каналов : Front: L C R, Side: L R, LFE
    Частота : 48, 0 КГц
    Частота кадров : 31, 250 кадров/сек (1536 SPF)
    Битовая глубина : 16 бит
    Метод сжатия : С потерями
    Размер потока : 287 Мбайт (14%)
    Выравнивание : Разделение по промежуткам
    Продолжительность промежутка : 42 мс. (1, 00 видеокадр)
    Время предзагрузки промежутка : 500 мс.
    Аудио #2
    Идентификатор : 2
    Формат : AC-3
    Формат/Информация : Audio Coding 3
    Параметр Endianness формата : Big
    Идентификатор кодека : 2000
    Продолжительность : 1 ч. 29 м.
    Вид битрейта : Постоянный
    Битрейт : 448 Кбит/сек
    Каналы : 6 каналов
    Расположение каналов : Front: L C R, Side: L R, LFE
    Частота : 48, 0 КГц
    Частота кадров : 31, 250 кадров/сек (1536 SPF)
    Битовая глубина : 16 бит
    Метод сжатия : С потерями
    Размер потока : 287 Мбайт (14%)
    Выравнивание : Разделение по промежуткам
    Продолжительность промежутка : 42 мс. (1, 00 видеокадр)
    Время предзагрузки промежутка : 500 мс.

    Залил: Sеvеn
    Размер скачиваемого торрента: 2.07 GB (2222078604 Bytes)

    Гадкий я 3/Despicable Me 3 (2017) BDRip от Seven | Лицензия
    загрузка...
    Рейтинг →
     (голосов: 1, оценка 3/5, голосовать можно 1 раз )

    Другие торренты по теме:

  • Гадкий Я: Мини-фильмы. Миньоны / Despicable Me Presents: Minion Madness / Despicable Me: Mini-Movies(2010) BDRip-AVC | P
  • Гадкий Я / Despicable Me (2010) BDRemux 1080p от Filmrus
  • Гадкий я 2 / Despicable Me 2 (2013) HD | D | Трейлер
  • OST - Гадкий Я 2 / Despicable Me 2 (2013) MP3
  • Гадкий я 2 / Despicable Me 2 (2013) TS | L1
  • Гадкий я 2 / Despicable Me 2 (2013) TS | L1
  • Гадкий я 2 / Despicable Me 2 (2013) TS | D
  • Гадкий я / Despicable Me (2010) НDRip от Scarabey | D


    • Комментарии (0):

      Информация

      Информация

        Посетители, находящиеся в группе Гости, не могут оставлять комментарии в данной новости.

        ↓ Меню



        ↓ Опрос

        А Вы добавили сайт в закладки?
        Да
        Не


        Top 10 за месяц (Мультфильмы)