.
Авторизация | Регистрация
Хочешь лучшие торренты? Добавь свой email!
Добавить
» » Тачки 3 / Cars 3 (2017) HDRip от Seven | iTunes скачать торрент бесплатно




    Тачки 3 / Cars 3 (2017) HDRip от Seven | iTunes скачать торрент бесплатно

    Опубликовал: Админ | Дата: 5-11-2017, 11:00 | Просмотров: 0



    Детально о кино:
    Русское название: Тачки 3
    Русское название в мировом прокате: Cars 3
    Создали в: 2017
    Категория жанра: мультфильм, комедия, приключения, семейный, спорт
    Главный режиссер: Брайан Фи/Brian Fee

    Актеры
    Оуэн Уилсон, Кристела Алонзо, Крис Купер, Нэйтан Филлион, Ларри-кабельщик, Арми Хаммер, Рэй Мальоцци, Тони Шэлуб, Бонни Хант, Лиа ДеЛария.

    Сюжет фильма
    Встречайте самого знаменитого гонщика всех времен, легенду гоночного трека Молнию Маккуина!
    Герой все еще продолжает показывать лучшие результаты на всех турнирах, однако победы даются ему не так легко, а конкуренция становится все жестче. Молнию Маккуина ждут захватывающие приключения, где он встретит новых друзей, а также поймет, что не только скорость и мощность мотора делают гонщика чемпионом.
    Автор рипа: Seven
    Снималось в: США/Pixar Animation Studios, Walt Disney Pictures
    Время просмотра: 01: 42: 24
    Перевод текста: Профессиональный (полное дублирование) iTunes
    + Оригинальная звуковая дорожка
    Субтитры: русские (полные), английские (полные) (отдельно)
    Файл:
    Тип видео: AVI
    Качество фильма: HDRip (источник: BDRip/1080p)
    Информация о видео: 720x304 (2.37: 1), 23.976 fps, XviD build 73 ~2137 kbps avg, 0.41 bit/pixel
    Информация о звуке 1: 48 kHz, AC3 Dolby Digital, 3/2 (L, C, R, l, r) + LFE ch, ~384.00 kbps avg | RUS
    Информация о звуке 2: 48 kHz, AC3 Dolby Digital, 3/2 (L, C, R, l, r) + LFE ch, ~448.00 kbps avg | ENG
    Размер скачиваемого торрента: 2188.35 Mb (1/2 DVD-R)
    Скачать: Сэмпл

    Инфо
    Формат : AVI
    Формат/Информация : Audio Video Interleave
    Профиль формата : OpenDML
    Размер файла : 2, 14 Гбайт
    Продолжительность : 1 ч. 42 м.
    Общий поток : 2987 Кбит/сек
    Название фильма : Тачки 3/Cars 3 (2017)
    Программа кодирования : VirtualDubMod 1.5.10.2 (build 2540/release)
    Библиотека кодирования : VirtualDubMod build 2540/release
    Примечание : HDRip by Seven
    Видео
    Идентификатор : 0
    Формат : MPEG-4 Visual
    Профиль формата : Advanced Simple@L5
    Параметр BVOP формата : 1
    Параметр QPel формата : Нет
    Параметр GMC формата : Без точки перехода
    Параметр матрицы формата : Выборочная
    Идентификатор кодека : XVID
    Идентификатор кодека/Подсказка : XviD
    Продолжительность : 1 ч. 42 м.
    Битрейт : 2137 Кбит/сек
    Ширина : 720 пикселей
    Высота : 304 пикселя
    Соотношение сторон : 2, 35: 1
    Частота кадров : 23, 976 (24000/1001) кадра/сек
    Цветовое пространство : YUV
    Субдискретизация насыщенности : 4: 2: 0
    Битовая глубина : 8 бит
    Тип развёртки : Прогрессивная
    Метод сжатия : С потерями
    Бит/(Пиксели*Кадры) : 0.407
    Размер потока : 1, 53 Гбайт (72%)
    Библиотека кодирования : XviD 73
    Аудио #1
    Идентификатор : 1
    Формат : AC-3
    Формат/Информация : Audio Coding 3
    Параметр Endianness формата : Big
    Идентификатор кодека : 2000
    Продолжительность : 1 ч. 42 м.
    Вид битрейта : Постоянный
    Битрейт : 384 Кбит/сек
    Каналы : 6 каналов
    Расположение каналов : Front: L C R, Side: L R, LFE
    Частота : 48, 0 КГц
    Частота кадров : 31, 250 кадров/сек (1536 SPF)
    Битовая глубина : 16 бит
    Метод сжатия : С потерями
    Размер потока : 281 Мбайт (13%)
    Выравнивание : Разделение по промежуткам
    Продолжительность промежутка : 42 мс. (1, 00 видеокадр)
    Время предзагрузки промежутка : 500 мс.
    Аудио #2
    Идентификатор : 2
    Формат : AC-3
    Формат/Информация : Audio Coding 3
    Параметр Endianness формата : Big
    Идентификатор кодека : 2000
    Продолжительность : 1 ч. 42 м.
    Вид битрейта : Постоянный
    Битрейт : 448 Кбит/сек
    Каналы : 6 каналов
    Расположение каналов : Front: L C R, Side: L R, LFE
    Частота : 48, 0 КГц
    Частота кадров : 31, 250 кадров/сек (1536 SPF)
    Битовая глубина : 16 бит
    Метод сжатия : С потерями
    Размер потока : 328 Мбайт (15%)
    Выравнивание : Разделение по промежуткам
    Продолжительность промежутка : 42 мс. (1, 00 видеокадр)
    Время предзагрузки промежутка : 500 мс.

    Залил: Sеvеn

    Онлайн видео Тачки 3


    Размер скачиваемого торрента: 2.14 GB (2294962107 Bytes)

    Тачки 3/Cars 3 (2017) HDRip от Seven | iTunes
    загрузка...
    Рейтинг →
     (голосов: 1, оценка 5/5, голосовать можно 1 раз )

    Другие торренты по теме:

  • Тачки / Cars (2006) BDRip-AVC
  • OST - Тачки / Cars Dilogy (2006,2011) MP3
  • Тачки / Cars (2006) BDRip от HQCLUB
  • Тачки / Cars (2006) WEB-DL 1080p | Open Matte | D, P, A
  • Тачки Мультачки: Байки Мэтра / Cars Toon: Maters Tall Tales (2008 - 2011) BDRip 720p от potroks | D
  • Тачки 1, 2 / Cars 1, 2 (2006-2011) BDRip-AVC от potroks | D
  • Тачки 2 / Cars 2 (2011) BDRip 1080p от Youtracker | 3D-Video
  • Тачки: Дилогия / Cars: Dilogy (2006-2011) BDRip 1080p от NoLimits-Team


    • Комментарии (0):

      Информация

      Информация

        Посетители, находящиеся в группе Гости, не могут оставлять комментарии в данной новости.

        ↓ Меню



        ↓ Опрос

        А Вы добавили сайт в закладки?
        Да
        Не


        Top 10 за месяц (Мультфильмы)