.
Авторизация | Регистрация
Хочешь лучшие торренты? Добавь свой email!
Добавить
» » Босс-молокосос / The Boss Baby (2017) BDRip 720p от KinoGadget | iPad | Лицензия скачать торрент бесплатно




    Босс-молокосос / The Boss Baby (2017) BDRip 720p от KinoGadget | iPad | Лицензия скачать торрент бесплатно

    Опубликовал: Админ | Дата: 30-10-2017, 11:01 | Просмотров: 0



    Создали в: 2017
    Русское название в мировом прокате: The Boss Baby
    Снималось в: США
    Категория жанра: мультфильм, комедия, семейный
    Возраст: 6+
    Главный режиссер: Том МакГрат

    Актеры
    Майлз Кристофер Бакши, Алек Болдуин, Эрик Белл мл., Стив Бушеми, Джимми Киммел, Лиза Кудроу, Тоби Магуайр, ВивиЭнн Йи
    Описание: Эта актуальная во все времена история для взрослых и детей рассказывается от лица семилетнего брата новорожденного — фантазера Тима, который ревнует его к родителям. Но главный герой — совсем не простой ребенок, он обладает лидерскими задатками, уже носит деловые костюмы и во всем видит бизнес-задачу.
    Однажды Тим узнает о готовящемся заговоре, целью которого является уничтожение любви, и организовал его директор компании Puppy Co. Но одному Тиму не по силам его остановить. Мальчику предстоит объединиться со своим нелюбимым братом, чтобы спасти родителей и вернуть порядок на Земле.
    Время просмотра: 01: 37: 30
    Перевод текста: Дублированный Лицензия
    Оригинальная дорожка: есть
    Автор рипа:
    Качество фильма видео: BDRip 720p Исходник: Blu-Ray Remux (1080p) Тип видео: mp4
    Информация о видео кодек: MPEG-4 AVC Информация о звуке кодек: AAC
    Информация о видео: 1280x544 (2.35: 1) at 23.976 fps, AVC at 2 128 kbps avg, 0.127 bit/pixel
    Информация о звуке №1 Rus: 48.0 KHz, AAC, 2 ch, 128.0 Kbps
    Информация о звуке №2 Eng: 48.0 KHz, AAC, 2 ch, 128.0 Kbps
    Субтитры: русские (форсированные, полные), английские (полные)
    Навигация по главам: есть
    Размер скачиваемого торрента: 1.63 GiB
    Log x264
    avs info: 1280x544p 1: 1 @ 24000/1001 fps (cfr)
    x264 info: using SAR=1/1
    x264 info: using cpu capabilities: MMX2 SSE2Fast SSSE3 Cache64
    x264 info: profile High, level 4.1
    x264 info: frame I: 1542 Avg QP: 14.28 size: 82035
    x264 info: frame P: 36263 Avg QP: 17.97 size: 21831
    x264 info: frame B: 102475 Avg QP: 21.35 size: 6230
    x264 info: consecutive B-frames: 3.9% 4.2% 15.4% 34.6% 16.2% 15.7% 3.8% 3.2% 3.0%
    x264 info: mb I I16..4: 10.3% 60.4% 29.4%
    x264 info: mb P I16..4: 3.9% 10.7% 2.4% P16..4: 40.8% 18.3% 11.5% 0.0% 0.0% skip: 12.3%
    x264 info: mb B I16..4: 0.3% 0.9% 0.3% B16..8: 37.1% 7.0% 1.7% direct: 2.8% skip: 50.0% L0: 42.6% L1: 49.1% BI: 8.3%
    x264 info: 8x8 transform intra: 62.0% inter: 64.7%
    x264 info: coded y, uvDC, uvAC intra: 60.1% 78.8% 53.0% inter: 11.5% 18.3% 4.7%
    x264 info: i16 v, h, dc, p: 26% 21% 5% 47%
    x264 info: i8 v, h, dc, ddl, ddr, vr, hd, vl, hu: 19% 20% 17% 5% 8% 8% 9% 7% 8%
    x264 info: i4 v, h, dc, ddl, ddr, vr, hd, vl, hu: 25% 21% 15% 5% 8% 8% 8% 5% 5%
    x264 info: i8c dc, h, v, p: 39% 26% 20% 14%
    x264 info: Weighted P-Frames: Y: 2.6% UV: 2.2%
    x264 info: ref P L0: 57.1% 8.1% 13.6% 6.1% 3.9% 3.7% 2.7% 1.7% 1.3% 1.6% 0.1% 0.0%
    x264 info: ref B L0: 80.3% 9.1% 4.5% 1.9% 1.4% 1.2% 1.0% 0.5% 0.2%
    x264 info: ref B L1: 95.3% 4.7%
    x264 info: kb/s: 2128.30
    encoded 140280 frames, 2.13 fps, 2128.30 kb/s

    MI
    General
    Complete name : ...Boss-molokosos_2017_KinoGadget.mp4
    Format : MPEG-4
    Format profile : Base Media
    Codec ID : isom (isom)
    File size : 1.63 GiB
    Duration : 1 h 37 min
    Overall bit rate mode : Variable
    Overall bit rate : 2 396 kb/s
    Movie name : Босс-молокосос | KinoGadget
    Performer : Том МакГрат
    Director : Том МакГрат
    Actor : Майлз Кристофер Бакши/Алек Болдуин/Эрик Белл мл./Стив Бушеми/Джимми Киммел/Лиза Кудроу/Тоби Магуайр/ВивиЭнн Йи
    Screenplay by : Майкл МакКаллерс/Марла Фрэйзи
    Producer : Ребекка Хантли/Рэмси Энн Наито/Джед Шлангер
    Genre : Animation, Comedy, Family
    ContentType : Short Film
    Recorded date : 2017
    Encoded date : UTC 2017-10-29 08: 11: 16
    Tagged date : UTC 2017-10-29 08: 41: 00
    Cover : Yes
    ContentRating : mpaa|PG|200|
    LongDeion : Эта актуальная во все времена история для взрослых и детей рассказывается от лица семилетнего брата новорожденного — фантазера Тима, который ревнует его к родителям. Но главный герой — совсем не простой ребенок, он обладает лидерскими задатками, уже носит деловые костюмы и во всем видит бизнес-задачу.// Однажды Тим узнает о готовящемся заговоре, целью которого является уничтожение любви, и организовал его директор компании Puppy Co. Но одному Тиму не по силам его остановить. Мальчику предстоит объединиться со своим нелюбимым братом, чтобы спасти родителей и вернуть порядок на Земле.
    HDVideo : Yes
    Video
    ID : 1
    Format : AVC
    Format/Info : Advanced Video Codec
    Format profile : High@L4.1
    Format settings, CABAC : Yes
    Format settings, ReFrames : 10 frames
    Codec ID : avc1
    Codec ID/Info : Advanced Video Coding
    Duration : 1 h 37 min
    Bit rate : 2 128 kb/s
    Maximum bit rate : 15.8 Mb/s
    Width : 1 280 pixels
    Height : 544 pixels
    Display aspect ratio : 2.35: 1
    Frame rate mode : Constant
    Frame rate : 23.976 (24000/1001) FPS
    Color space : YUV
    Chroma subsampling : 4: 2: 0
    Bit depth : 8 bits
    Scan type : Progressive
    Bits/(Pixel*Frame) : 0.127
    Stream size : 1.45 GiB (89%)
    Writing library : x264 core 148 r2744 b97ae06
    Encoding settings : cabac=1/ref=10/deblock=1: 1: 1/analyse=0x3: 0x113/me=umh/subme=7/psy=1/psy_rd=1.00: 0.00/mixed_ref=1/me_range=32/chroma_me=1/trellis=2/8x8dct=1/cqm=0/deadzone=21, 11/fast_pskip=0/chroma_qp_offset=-2/threads=3/lookahead_threads=1/sliced_threads=0/nr=0/decimate=1/interlaced=0/bluray_compat=0/constrained_intra=0/bframes=8/b_pyramid=2/b_adapt=2/b_bias=0/direct=1/weightb=1/open_gop=0/weightp=2/keyint=250/keyint_min=25/scenecut=40/intra_refresh=0/rc_lookahead=60/rc=crf/mbtree=1/crf=18.0/qcomp=0.60/qpmin=0/qpmax=69/qpstep=4/vbv_maxrate=62500/vbv_bufsize=78125/crf_max=0.0/nal_hrd=none/filler=0/ip_ratio=1.40/aq=1: 1.00
    Encoded date : UTC 2017-10-29 05: 13: 08
    Tagged date : UTC 2017-10-29 08: 12: 10
    Audio #1
    ID : 2
    Format : AAC
    Format/Info : Advanced Audio Codec
    Format profile : LC
    Codec ID : 40
    Duration : 1 h 37 min
    Bit rate mode : Variable
    Bit rate : 128 kb/s
    Maximum bit rate : 135 kb/s
    Channel(s) : 2 channels
    Channel positions : Front: L R
    Sampling rate : 48.0 kHz
    Frame rate : 46.875 FPS (1024 spf)
    Compression mode : Lossy
    Stream size : 89.3 MiB (5%)
    Language : Russian
    Encoded date : UTC 2017-10-29 05: 17: 35
    Tagged date : UTC 2017-10-29 08: 12: 10
    Audio #2
    ID : 3
    Format : AAC
    Format/Info : Advanced Audio Codec
    Format profile : LC
    Codec ID : 40
    Duration : 1 h 37 min
    Bit rate mode : Variable
    Bit rate : 128 kb/s
    Maximum bit rate : 135 kb/s
    Channel(s) : 2 channels
    Channel positions : Front: L R
    Sampling rate : 48.0 kHz
    Frame rate : 46.875 FPS (1024 spf)
    Compression mode : Lossy
    Stream size : 89.3 MiB (5%)
    Language : English
    Encoded date : UTC 2017-10-29 05: 26: 11
    Tagged date : UTC 2017-10-29 08: 12: 10
    Text #1
    ID : 4
    Format : Timed Text
    Codec ID : tx3g
    Duration : 1 h 25 min
    Bit rate mode : Variable
    Bit rate : 1 b/s
    Stream size : 520 Bytes (0%)
    Language : Russian
    Forced : No
    Encoded date : UTC 2017-10-29 08: 12: 10
    Tagged date : UTC 2017-10-29 08: 12: 10
    Text #2
    ID : 5
    Format : Timed Text
    Codec ID : tx3g
    Duration : 1 h 37 min
    Bit rate mode : Variable
    Bit rate : 105 b/s
    Stream size : 74.8 KiB (0%)
    Language : Russian
    Forced : No
    Encoded date : UTC 2017-10-29 08: 12: 10
    Tagged date : UTC 2017-10-29 08: 12: 10
    Text #3
    ID : 6
    Format : Timed Text
    Codec ID : tx3g
    Duration : 1 h 37 min
    Bit rate mode : Variable
    Bit rate : 72 b/s
    Stream size : 51.0 KiB (0%)
    Language : English
    Forced : No
    Encoded date : UTC 2017-10-29 08: 12: 10
    Tagged date : UTC 2017-10-29 08: 12: 10
    Menu
    00: 00: 00.000 : 00: 00: 00.000
    00: 03: 45.892 : 00: 03: 45.892
    00: 08: 58.288 : 00: 08: 58.288
    00: 11: 45.914 : 00: 11: 45.914
    00: 14: 59.565 : 00: 14: 59.565
    00: 19: 38.219 : 00: 19: 38.219
    00: 22: 52.788 : 00: 22: 52.788
    00: 28: 27.247 : 00: 28: 27.247
    00: 30: 26.116 : 00: 30: 26.116
    00: 33: 45.482 : 00: 33: 45.482
    00: 36: 57.257 : 00: 36: 57.257
    00: 39: 18.356 : 00: 39: 18.356
    00: 42: 35.344 : 00: 42: 35.344
    00: 46: 20.611 : 00: 46: 20.611
    00: 51: 37.720 : 00: 51: 37.720
    00: 53: 25.285 : 00: 53: 25.285
    00: 56: 28.719 : 00: 56: 28.719
    00: 59: 35.405 : 00: 59: 35.405
    01: 04: 03.173 : 01: 04: 03.173
    01: 08: 15.758 : 01: 08: 15.758
    01: 11: 29.911 : 01: 11: 29.911
    01: 16: 25.247 : 01: 16: 25.247
    01: 23: 10.110 : 01: 23: 10.110
    01: 27: 36.960 : 01: 27: 36.960

    Скриншоты


    Данный рип предназначен для просмотра на мобильных гаджетах с поддержкой формата mp4

    Онлайн видео Босс-молокосос


    Размер скачиваемого торрента: 1.63 GB (1752432119 Bytes)

    Босс-молокосос/The Boss Baby (2017) BDRip 720p от KinoGadget | iPad | Лицензия
    загрузка...
    Рейтинг →
     (голосов: 1, оценка 4/5, голосовать можно 1 раз )

    Другие торренты по теме:

  • Босс-молокосос / The Boss Baby (2017) TS | D
  • Босс-молокосос / The Boss Baby (2017) WEB-DLRip от MegaPeer | iTunes
  • Босс-молокосос / The Boss Baby (2017) WEB-DL 720p от ExKinoRay | iTunes
  • Босс-молокосос / The Boss Baby (2017) WEB-DLRip от ImperiaFilm | КПК | iTunes
  • Босс-молокосос / The Boss Baby (2017) WEB-DLRip-AVC от OlLanDGroup | iTunes
  • Босс-молокосос / The Boss Baby (2017) WEB-DLRip от MegaPeer | iTunes
  • Босс-молокосос / The Boss Baby (2017) WEB-DLRip от Scarabey | iTunes
  • Босс-молокосос / The Boss Baby (2017) BDRip-AVC от R.G.Resident | iTunes


    • Комментарии (0):

      Информация

      Информация

        Посетители, находящиеся в группе Гости, не могут оставлять комментарии в данной новости.

        ↓ Меню



        ↓ Опрос

        А Вы добавили сайт в закладки?
        Да
        Не


        Top 10 за месяц (Мультфильмы)