.
Авторизация | Регистрация
Хочешь лучшие торренты? Добавь свой email!
Добавить
» » Мастера меча онлайн: Порядковый ранг / Gekijouban Sword Art Online: Ordinal Scale (2017) BDRip 1080p | AniDub скачать торрент бесплатно




    Мастера меча онлайн: Порядковый ранг / Gekijouban Sword Art Online: Ordinal Scale (2017) BDRip 1080p | AniDub скачать торрент бесплатно

    Опубликовал: Админ | Дата: 29-10-2017, 11:00 | Просмотров: 0



    Детально о кино
    Русское название: Мастера меча онлайн: Порядковый ранг
    Русское название в мировом прокате: Gekijouban Sword Art Online: Ordinal Scale
    Создали в: 2017
    Категория жанра: приключения, фантастика
    Главный режиссер: Ито Томохико
    Художник: Нагасима Такаюки, Такэда Юсукэ, Хори Сотаро, Сиодзава Ёсинори

    Актеры
    Мацуока Ёсицугу, Томацу Харука, Ито Канаэ, Такэтацу Аяна, Хидака Рина, Такагаки Аяхи, Савасиро Миюки, Хирата Хироаки, Ясумото Хироки, Ямадэра Коити, Канда Саяка, Иноэ Ёсио, Кага Такэси

    Сюжет фильма

    Полнометражный фильм вселенной САО по оригинальному сценарию Кавахары Рэки. Действие будет происходить между арками Розарий матери и Алисизация и сконцентрируется на отношениях Кирито и Асуны.
    Фильм будет рассказывать о новой игре, для которой требуется устройство расширенной реальности под названием Augma. Augma куда компактнее АмуСферы. Ordinal Scale - это ARMMORPG, эксклюзивная для Augma. Игра наделала шуму благодаря применению в ней новейших технологий, включающих реальный мир в игру в качестве игрового поля, а также возможности повышать ранг победами над монстрами и применять предметы в различных областях реального мира. Ordinal Scale (OS) - это функция в игре, и все игроки получают ранг, основанный на их порядковых номерах. Таким образом, топовые игроки обладают несокрушимой силой. В соло-PvP порядковый ранг - это важный фактор, определяющий во многом победу и поражение.

    World Art|MAL
    Снималось в: Япония
    Киностудия: A-1 Pictures Inc.
    Время просмотра: 02: 00: 12
    Язык: Русский, Японский
    Перевод текста: Любительский (двухголосый, закадровый)
    Файл
    Качество фильма: BDRip
    Тип видео: MKV
    Кодек для видео: H.264
    Информация о звуке кодек: AAC
    Информация о видео: 1920x1080, 23.976 fps, 8000 kbps
    Информация о звуке RUS: 48.0 kHz, AAC, 2 ch, 192 kbps - AniDub
    Информация о звуке JAP: 48.0 kHz, AAC, 2 ch, 208 kbps
    Субтитры: русские (встроенные полный перевод, ASS) - 2nd Division DanielB Tanegashi
    Озвучка
    Релиз подготовил:
    Тип перевода: JAM, Nika Lenina
    Перевод текста: 2nd Division
    Тайминг и работа со звуком: Angrod
    Скриншоты

    MediaInfo
    General
    Format : Matroska
    Format version : Version 4/Version 2
    File size : 7.09 GiB
    Duration : 2 h 0 min
    Overall bit rate : 8 439 kb/s
    Encoded date : UTC 2017-10-28 05: 28: 37
    Writing application : mkvmerge v8.3.0 (;Over the Horizon;) 64bit
    Writing library : libebml v1.3.1 + libmatroska v1.4.2
    Video
    ID : 1
    Format : AVC
    Format/Info : Advanced Video Codec
    Format profile : Main@L4.1
    Format settings, CABAC : Yes
    Format settings, ReFrames : 4 frames
    Codec ID : V_MPEG4/ISO/AVC
    Duration : 2 h 0 min
    Bit rate : 8 036 kb/s
    Width : 1 920 pixels
    Height : 1 080 pixels
    Display aspect ratio : 16: 9
    Frame rate mode : Constant
    Frame rate : 23.976 (24000/1001) FPS
    Color space : YUV
    Chroma subsampling : 4: 2: 0
    Bit depth : 8 bits
    Scan type : Progressive
    Bits/(Pixel*Frame) : 0.162
    Stream size : 6.75 GiB (95%)
    Writing library : x264 core 152 r2851+58 429492e t_mod_Custom 8-bit@all X86
    Encoding settings : cabac=1/ref=3/deblock=1: 0: 0/analyse=0x1: 0x131/me=umh/subme=9/psy=1/fade_compensate=0.00/psy_rd=1.00: 0.00/mixed_ref=1/me_range=32/chroma_me=1/trellis=1/8x8dct=0/cqm=0/deadzone=21, 11/fast_pskip=1/chroma_qp_offset=-2/threads=18/lookahead_threads=1/sliced_threads=0/nr=0/decimate=1/interlaced=0/bluray_compat=0/constrained_intra=0/fgo=0/bframes=3/b_pyramid=2/b_adapt=1/b_bias=0/direct=1/weightb=1/open_gop=0/weightp=2/keyint=240/keyint_min=1/scenecut=40/intra_refresh=0/rc_lookahead=40/rc=crf/mbtree=1/crf=17.0000/qcomp=0.60/qpmin=0: 0: 0/qpmax=69: 69: 69/qpstep=4/ip_ratio=1.40/aq=1: 1.00/aq-sensitivity=10.00/aq-factor=1.00: 1.00: 1.00/aq2=0/aq3=0
    Default : Yes
    Forced : No
    Audio #1
    ID : 2
    Format : AAC
    Format/Info : Advanced Audio Codec
    Format profile : LC
    Codec ID : A_AAC
    Duration : 2 h 0 min
    Bit rate : 192 kb/s
    Channel(s) : 2 channels
    Channel positions : Front: L R
    Sampling rate : 48.0 kHz
    Frame rate : 46.875 FPS (1024 spf)
    Compression mode : Lossy
    Stream size : 165 MiB (2%)
    Title : AniDub
    Language : Russian
    Default : Yes
    Forced : No
    Audio #2
    ID : 3
    Format : AAC
    Format/Info : Advanced Audio Codec
    Format profile : LC
    Codec ID : A_AAC
    Duration : 2 h 0 min
    Bit rate : 208 kb/s
    Channel(s) : 2 channels
    Channel positions : Front: L R
    Sampling rate : 48.0 kHz
    Frame rate : 46.875 FPS (1024 spf)
    Compression mode : Lossy
    Stream size : 179 MiB (2%)
    Title : Original
    Language : Japanese
    Default : No
    Forced : No
    Text
    ID : 4
    Format : ASS
    Codec ID : S_TEXT/ASS
    Codec ID/Info : Advanced Sub Station Alpha
    Duration : 1 h 59 min
    Bit rate : 126 b/s
    Count of elements : 1409
    Compression mode : Lossless
    Stream size : 110 KiB (0%)
    Title : Полные субтитры
    Language : Russian
    Default : Yes
    Forced : No


    Онлайн видео Мастера меча онлайн: Порядковый ранг


    Размер скачиваемого торрента: 7.09 GB (7608750213 Bytes)

    Мастера меча онлайн: Порядковый ранг/Gekijouban Sword Art Online: Ordinal Scale (2017) BDRip 1080p | AniDub
    загрузка...
    Рейтинг →
     (голосов: 1, оценка 3/5, голосовать можно 1 раз )

    Другие торренты по теме:

  • Искусство Меча Онлайн: спешл / Мастера Меча Онлайн (спешл) / Sword Art Online: Extra Edition (2013) HDTVRip 720p | L1 скачать через торрент бесплатно
  • Мастера меча онлайн / Sword Art Online (2012) HDTVRip 720 | Persona99
  • Мастера меча онлайн 2 / Sword Art Online II (2014) WEBRip 720p | LE-Production
  • Мастера меча онлайн ТВ-2 / Sword Art Online TV-2 (2014) HDTVRip 720 | JAM Nika Lenina скачать через торрент бесплатно
  • Мастера меча онлайн II / Sword Art Online II (2014) HDTVRip 720p от AniPlay скачать через торрент бесплатно
  • Мастера Меча Онлайн: Послесловие / Sword Art Online: Extra Edition (2013) BDRip 720 | Persona99 скачать через торрент бесплатно
  • Мастера меча онлайн 2 / Sword Art Online II (2014) HDTVRip 720 | Persona99 скачать через торрент бесплатно
  • Мастера меча онлайн II / Sword Art Online II / II (2014) HDTVRip 720p от AniPlay скачать через торрент бесплатно


    • Комментарии (0):

      Информация

      Информация

        Посетители, находящиеся в группе Гости, не могут оставлять комментарии в данной новости.

        ↓ Меню



        ↓ Опрос

        А Вы добавили сайт в закладки?
        Да
        Не


        Top 10 за месяц (Мультфильмы)