.
Авторизация | Регистрация
Хочешь лучшие торренты? Добавь свой email!
Добавить
» » Гадкий я 3 / Despicable Me 3 (2017) BDRemux 1080p от ExKinoRay | Лицензия скачать торрент бесплатно




    Гадкий я 3 / Despicable Me 3 (2017) BDRemux 1080p от ExKinoRay | Лицензия скачать торрент бесплатно

    Опубликовал: Админ | Дата: 29-10-2017, 11:00 | Просмотров: 0



    Детально о кино
    Русское название: Гадкий Я 3
    Русское название в мировом прокате: Despicable Me 3
    Создали в: 2017
    Категория жанра: Мультфильм, фантастика, боевик, комедия, приключения, семейный
    Главный режиссер: Эрик Гуильон, Кайл Балда, Пьер Коффан

    Актеры
    Стив Карелл, Кристен Уиг, Трей Паркер, Миранда Косгров, Дэна Гайер, Пьер Коффан, Стив Кугэн, Джули Эндрюс, Дженни Слейт
    О фильме:
    Грядет третье пришествие. Многодетный суперагент, роковая красотка и бессмертные миньоны на подходе. Готовьтесь. Они будут править миром.

    Снималось в: США
    Киностудия: Illumination Entertainment, Universal Pictures
    Время просмотра: 01: 29: 40
    Перевод текста: Дублированный | Лицензия
    Файл
    Качество фильма: BDRemux 1080p
    Информация о видео: MPEG-4 AVC, 1920x1080, 25.6 Mbit/s, 23.976 fps
    Информация о звуке:
    Информация о звуке #01: 48 kHz, DTS, 5.1, 768 Kbps | Дублированный | RUS|
    Информация о звуке #02: 48 kHz, AC3, 5.1, 448 Kbps | Дублированный | RUS|
    Информация о звуке #03: 48 kHz, DTS-HD MA , 7.1, 3958 Kbps | Оригинал | ENG|
    Субтитры: Русские (forced, full), английские

    MI
    General
    Unique ID : 246802395753940682524692615452314985366 (0xB9AC699533E36906BB5265C99C1E6396)
    Complete name : G: VideoSSDDespicable.Me.3.2017.Lic.BDREMUX.1080p.ExKinoRay.mkv
    Format : Matroska
    Format version : Version 4/Version 2
    File size : 19.0 GiB
    Duration : 1 h 29 min
    Overall bit rate mode : Variable
    Overall bit rate : 30.4 Mb/s
    Encoded date : UTC 2017-10-28 04: 13: 38
    Writing application : mkvmerge v17.0.0 (;Be Ur Friend;) 64-bit
    Writing library : libebml v1.3.5 + libmatroska v1.4.8
    Video
    ID : 1
    Format : AVC
    Format/Info : Advanced Video Codec
    Format profile : High@L4.1
    Format settings : CABAC/4 Ref Frames
    Format settings, CABAC : Yes
    Format settings, RefFrames : 4 frames
    Format settings, GOP : M=3, N=12
    Codec ID : V_MPEG4/ISO/AVC
    Duration : 1 h 29 min
    Bit rate mode : Variable
    Bit rate : 25.6 Mb/s
    Maximum bit rate : 29.0 Mb/s
    Width : 1 920 pixels
    Height : 1 080 pixels
    Display aspect ratio : 16: 9
    Frame rate mode : Constant
    Frame rate : 23.976 (24000/1001) FPS
    Color space : YUV
    Chroma subsampling : 4: 2: 0
    Bit depth : 8 bits
    Scan type : Progressive
    Bits/(Pixel*Frame) : 0.515
    Stream size : 16.0 GiB (84%)
    Language : English
    Default : Yes
    Forced : No
    Audio #1
    ID : 2
    Format : DTS
    Format/Info : Digital Theater Systems
    Mode : 16
    Format settings, Endianness : Big
    Codec ID : A_DTS
    Duration : 1 h 29 min
    Bit rate mode : Constant
    Bit rate : 768 kb/s
    Channel(s) : 6 channels
    Channel positions : Front: L C R, Side: L R, LFE
    Sampling rate : 48.0 kHz
    Frame rate : 93.750 FPS (512 SPF)
    Bit depth : 24 bits
    Compression mode : Lossy
    Stream size : 493 MiB (3%)
    Title : Dub
    Language : Russian
    Default : Yes
    Forced : No
    Audio #2
    ID : 3
    Format : AC-3
    Format/Info : Audio Coding 3
    Format settings, Endianness : Big
    Codec ID : A_AC3
    Duration : 1 h 29 min
    Bit rate mode : Constant
    Bit rate : 448 kb/s
    Channel(s) : 6 channels
    Channel positions : Front: L C R, Side: L R, LFE
    Sampling rate : 48.0 kHz
    Frame rate : 31.250 FPS (1536 SPF)
    Bit depth : 16 bits
    Compression mode : Lossy
    Stream size : 287 MiB (1%)
    Title : Dub
    Language : Russian
    Service kind : Complete Main
    Default : No
    Forced : No
    Audio #3
    ID : 4
    Format : DTS
    Format/Info : Digital Theater Systems
    Format profile : X/MA/Core
    Mode : 16
    Format settings, Endianness : Big
    Codec ID : A_DTS
    Duration : 1 h 29 min
    Bit rate mode : Variable/Variable/Constant
    Bit rate : 3 595 kb/s/3 595 kb/s/1 509 kb/s
    Channel(s) : Object Based/8 channels/6 channels
    Channel positions : Object Based/Front: L C R, Side: L R, Back: L R, LFE/Front: L C R, Side: L R, LFE
    Sampling rate : /48.0 kHz/48.0 kHz
    Frame rate : 93.750 FPS (512 SPF)
    Bit depth : /24 bits/24 bits
    Compression mode : /Lossless/Lossy
    Stream size : 2.25 GiB (12%)
    Title : Original
    Language : English
    Default : No
    Forced : No
    Text #1
    ID : 5
    Format : UTF-8
    Codec ID : S_TEXT/UTF8
    Codec ID/Info : UTF-8 Plain Text
    Duration : 1 h 10 min
    Bit rate : 1 b/s
    Count of elements : 29
    Stream size : 962 Bytes (0%)
    Title : Forced
    Language : Russian
    Default : Yes
    Forced : No
    Text #2
    ID : 6
    Format : UTF-8
    Codec ID : S_TEXT/UTF8
    Codec ID/Info : UTF-8 Plain Text
    Duration : 1 h 20 min
    Bit rate : 86 b/s
    Count of elements : 1083
    Stream size : 51.1 KiB (0%)
    Title : Full
    Language : Russian
    Default : No
    Forced : No
    Text #3
    ID : 7
    Format : UTF-8
    Codec ID : S_TEXT/UTF8
    Codec ID/Info : UTF-8 Plain Text
    Duration : 1 h 21 min
    Bit rate : 108 b/s
    Count of elements : 1527
    Stream size : 64.7 KiB (0%)
    Title : SDH Colored
    Language : English
    Default : No
    Forced : No
    Menu
    00: 00: 00.000 : en: 00: 00: 00.000
    00: 03: 06.103 : en: 00: 03: 06.103
    00: 07: 57.977 : en: 00: 07: 57.977
    00: 11: 12.839 : en: 00: 11: 12.839
    00: 16: 15.766 : en: 00: 16: 15.766
    00: 20: 07.498 : en: 00: 20: 07.498
    00: 24: 07.988 : en: 00: 24: 07.988
    00: 28: 57.069 : en: 00: 28: 57.069
    00: 32: 55.348 : en: 00: 32: 55.348
    00: 39: 01.839 : en: 00: 39: 01.839
    00: 42: 44.187 : en: 00: 42: 44.187
    00: 46: 47.179 : en: 00: 46: 47.179
    00: 50: 55.636 : en: 00: 50: 55.636
    00: 56: 12.077 : en: 00: 56: 12.077
    01: 00: 02.265 : en: 01: 00: 02.265
    01: 05: 41.229 : en: 01: 05: 41.229
    01: 10: 14.544 : en: 01: 10: 14.544
    01: 14: 33.761 : en: 01: 14: 33.761
    01: 19: 29.723 : en: 01: 19: 29.723
    01: 21: 56.995 : en: 01: 21: 56.995

    Релиз подготовил: Автор релиза:
    Подпишись на меня, кликни по картинке :


    Онлайн видео Гадкий я 3


    Размер скачиваемого торрента: 19.04 GB (20447040045 Bytes)

    Гадкий я 3/Despicable Me 3 (2017) BDRemux 1080p от ExKinoRay | Лицензия
    загрузка...
    Рейтинг →
     (голосов: 1, оценка 4/5, голосовать можно 1 раз )

    Другие торренты по теме:

  • Гадкий Я: Мини-фильмы. Миньоны / Despicable Me Presents: Minion Madness / Despicable Me: Mini-Movies(2010) BDRip-AVC | P
  • Гадкий Я / Despicable Me (2010) BDRemux 1080p от Filmrus
  • Гадкий я 2 / Despicable Me 2 (2013) HD | D | Трейлер
  • OST - Гадкий Я 2 / Despicable Me 2 (2013) MP3
  • Гадкий я 2 / Despicable Me 2 (2013) TS | L1
  • Гадкий я 2 / Despicable Me 2 (2013) TS | L1
  • Гадкий я 2 / Despicable Me 2 (2013) TS | D
  • Гадкий я / Despicable Me (2010) НDRip от Scarabey | D


    • Комментарии (0):

      Информация

      Информация

        Посетители, находящиеся в группе Гости, не могут оставлять комментарии в данной новости.

        ↓ Меню



        ↓ Опрос

        А Вы добавили сайт в закладки?
        Да
        Не


        Top 10 за месяц (Мультфильмы)