.
Авторизация | Регистрация
Хочешь лучшие торренты? Добавь свой email!
Добавить
» » Тачки 3 / Cars 3 (2017) BDRip 720p от ExKinoRay | iTunes скачать торрент бесплатно




    Тачки 3 / Cars 3 (2017) BDRip 720p от ExKinoRay | iTunes скачать торрент бесплатно

    Опубликовал: Админ | Дата: 26-10-2017, 11:00 | Просмотров: 0



    Детально о кино
    Русское название: Тачки 3
    Русское название в мировом прокате: Cars 3
    Создали в: 2017
    Категория жанра: Мультфильм, комедия, приключения, семейный, спорт, полнометражный
    Главный режиссер: Джон Лассетер, Джо Рэнфт

    Актеры
    Оуэн Уилсон, Пол Ньюман, Бонни Хант, Ларри Кейбл Гай, Чич Марин, Тони Шэлоуб, Гуидо Куарони, Дженифер Льюис, Пол Дули, Майкл Уоллис
    О фильме:
    Герой все еще продолжает показывать лучшие результаты на всех турнирах, однако победы даются ему не так легко, а конкуренция становится все жестче. Молнию Маккуина ждут захватывающие приключения, где он встретит новых друзей, а также поймет, что не только скорость и мощность мотора делают гонщика чемпионом.


    Снималось в: США
    Киностудия: Walt Disney Pictures, Pixar Animation Studios
    Время просмотра: 01: 42: 23
    Перевод текста: Дублированный | iTunes
    Файл
    Качество фильма: BDRip 720p
    Информация о видео: MPEG-4 AVC, 1280x536, 4900 Кbit/s, 23.976 fps
    Информация о звуке:
    Информация о звуке #01: 48 kHz, AC3, 5.1, 384 Kbps | Дублированный | iTunes | RUS|
    Информация о звуке #02: 48 kHz, DTS, 5.1, 1510 Kbps | Оригинал | ENG|
    Субтитры: Русские, английские

    MI
    General
    Unique ID : 221793240926103170976146163338082216694 (0xA6DBD30CF11F44A08BEBE76D10136AF6)
    Complete name : G: Cars.3.2017.BDRip.720p.ExKinoRay.mkv
    Format : Matroska
    Format version : Version 4/Version 2
    File size : 4.86 GiB
    Duration : 1 h 42 min
    Overall bit rate : 6 797 kb/s
    Encoded date : UTC 2017-10-26 02: 45: 46
    Writing application : mkvmerge v17.0.0 (;Be Ur Friend;) 64-bit
    Writing library : libebml v1.3.5 + libmatroska v1.4.8
    Video
    ID : 1
    Format : AVC
    Format/Info : Advanced Video Codec
    Format profile : High@L4.1
    Format settings : CABAC/12 Ref Frames
    Format settings, CABAC : Yes
    Format settings, RefFrames : 12 frames
    Codec ID : V_MPEG4/ISO/AVC
    Duration : 1 h 42 min
    Bit rate : 4 900 kb/s
    Width : 1 280 pixels
    Height : 536 pixels
    Display aspect ratio : 2.40: 1
    Frame rate mode : Constant
    Frame rate : 23.976 (24000/1001) FPS
    Color space : YUV
    Chroma subsampling : 4: 2: 0
    Bit depth : 8 bits
    Scan type : Progressive
    Bits/(Pixel*Frame) : 0.298
    Stream size : 3.51 GiB (72%)
    Writing library : x264 core 148 r2665kMod a01e339
    Encoding settings : cabac=1/ref=12/deblock=1: -1: -1/analyse=0x3: 0x133/me=umh/subme=11/psy=1/fade_compensate=0.00/psy_rd=0.70: 0.00/mixed_ref=1/me_range=48/chroma_me=1/trellis=2/8x8dct=1/cqm=0/deadzone=21, 11/fast_pskip=0/chroma_qp_offset=-2/threads=17/lookahead_threads=2/sliced_threads=0/nr=0/decimate=0/interlaced=0/bluray_compat=0/constrained_intra=0/fgo=0/bframes=8/b_pyramid=2/b_adapt=2/b_bias=0/direct=3/weightb=1/open_gop=0/weightp=2/keyint=240/keyint_min=24/scenecut=40/intra_refresh=0/rc=2pass/mbtree=0/bitrate=4900/ratetol=1.0/qcomp=0.70/qpmin=0/qpmax=69/qpstep=4/cplxblur=20.0/qblur=0.5/ip_ratio=1.10/pb_ratio=1.20/aq=3: 1.10
    Language : English
    Default : Yes
    Forced : No
    Audio #1
    ID : 2
    Format : AC-3
    Format/Info : Audio Coding 3
    Format settings, Endianness : Big
    Codec ID : A_AC3
    Duration : 1 h 42 min
    Bit rate mode : Constant
    Bit rate : 384 kb/s
    Channel(s) : 6 channels
    Channel positions : Front: L C R, Side: L R, LFE
    Sampling rate : 48.0 kHz
    Frame rate : 31.250 FPS (1536 SPF)
    Bit depth : 16 bits
    Compression mode : Lossy
    Stream size : 281 MiB (6%)
    Title : iTunes
    Language : Russian
    Service kind : Complete Main
    Default : Yes
    Forced : No
    Audio #2
    ID : 3
    Format : DTS
    Format/Info : Digital Theater Systems
    Mode : 16
    Format settings, Endianness : Big
    Codec ID : A_DTS
    Duration : 1 h 42 min
    Bit rate mode : Constant
    Bit rate : 1 509 kb/s
    Channel(s) : 6 channels
    Channel positions : Front: L C R, Side: L R, LFE
    Sampling rate : 48.0 kHz
    Frame rate : 93.750 FPS (512 SPF)
    Bit depth : 24 bits
    Compression mode : Lossy
    Stream size : 1.08 GiB (22%)
    Title : Original
    Language : English
    Default : No
    Forced : No
    Text #1
    ID : 4
    Format : UTF-8
    Codec ID : S_TEXT/UTF8
    Codec ID/Info : UTF-8 Plain Text
    Duration : 1 h 40 min
    Bit rate : 130 b/s
    Count of elements : 1420
    Stream size : 96.6 KiB (0%)
    Title : Full
    Language : Russian
    Default : No
    Forced : No
    Text #2
    ID : 5
    Format : UTF-8
    Codec ID : S_TEXT/UTF8
    Codec ID/Info : UTF-8 Plain Text
    Duration : 1 h 41 min
    Bit rate : 86 b/s
    Count of elements : 2108
    Stream size : 64.2 KiB (0%)
    Language : English
    Default : No
    Forced : No
    Menu
    00: 00: 00.000 : en: Champ McQueen
    00: 04: 57.255 : en: Storm Front
    00: 10: 54.988 : en: Crash
    00: 13: 59.422 : en: Wake-up Call
    00: 18: 15.344 : en: Phone Call
    00: 21: 07.641 : en: Modern Training
    00: 34: 08.880 : en: Deal
    00: 37: 52.103 : en: Beach
    00: 42: 44.812 : en: Crazy Eight
    00: 49: 44.398 : en: Cruz;s Dream
    00: 53: 57.734 : en: Facetime
    00: 58: 17.702 : en: Olive Branch
    00: 59: 27.522 : en: Smokey
    01: 02: 15.940 : en: Hud;s Win
    01: 06: 35.533 : en: It;s Over
    01: 08: 33.109 : en: Old School Training
    01: 15: 48.126 : en: Florida Arrival
    01: 20: 57.852 : en: Pit Stop
    01: 29: 42.418 : en: Victory Lane
    01: 32: 17.031 : en: Epilogue
    01: 34: 00.092 : en: End Credits

    Релиз подготовил: Автор релиза:
    Подпишись на меня, кликни по картинке :

    Размер скачиваемого торрента: 4.86 GB (5220916232 Bytes)

    Тачки 3/Cars 3 (2017) BDRip 720p от ExKinoRay | iTunes
    загрузка...
    Рейтинг →
     (голосов: 1, оценка 5/5, голосовать можно 1 раз )

    Другие торренты по теме:

  • Тачки / Cars (2006) BDRip-AVC
  • OST - Тачки / Cars Dilogy (2006,2011) MP3
  • Тачки / Cars (2006) BDRip от HQCLUB
  • Тачки / Cars (2006) WEB-DL 1080p | Open Matte | D, P, A
  • Тачки Мультачки: Байки Мэтра / Cars Toon: Maters Tall Tales (2008 - 2011) BDRip 720p от potroks | D
  • Тачки 1, 2 / Cars 1, 2 (2006-2011) BDRip-AVC от potroks | D
  • Тачки 2 / Cars 2 (2011) BDRip 1080p от Youtracker | 3D-Video
  • Тачки: Дилогия / Cars: Dilogy (2006-2011) BDRip 1080p от NoLimits-Team


    • Комментарии (0):

      Информация

      Информация

        Посетители, находящиеся в группе Гости, не могут оставлять комментарии в данной новости.

        ↓ Меню



        ↓ Опрос

        А Вы добавили сайт в закладки?
        Да
        Не


        Top 10 за месяц (Мультфильмы)