.
Авторизация | Регистрация
Хочешь лучшие торренты? Добавь свой email!
Добавить
» » Смурфики: Затерянная деревня / Smurfs: The Lost Village (2017) BDRip 720p от ExKinoRay | Лицензия скачать торрент бесплатно




    Смурфики: Затерянная деревня / Smurfs: The Lost Village (2017) BDRip 720p от ExKinoRay | Лицензия скачать торрент бесплатно

    Опубликовал: Админ | Дата: 5-10-2017, 11:02 | Просмотров: 0



    Детально о кино
    Русское название: Смурфики: Затерянная деревня
    Русское название в мировом прокате: Smurfs: The Lost Village
    Создали в: 2017
    Категория жанра: Мультфильм, фэнтези, комедия, приключения, семейный
    Главный режиссер: Келли Эсбёри

    Актеры
    Ариэль Уинтер, Джо Манганьелло, Мишель Родригес, Джулия Робертс, Элли Кемпер, Мэнди Пэтинкин, Рэйн Уилсон, Деми Ловато, Джейк Джонсон, Джек МакБрайер
    О фильме:
    Смурфетта и её лучшие друзья, Умник, Растяпа и Силач, отправляются на поиски таинственной затерянной деревни, стремясь опередить злобного волшебника Гаргамеля. В пути смурфиков ожидают невероятные опасности и головокружительные приключения, но игра стоит свеч, ведь в конечном итоге герои смогут разгадать самую большую загадку в истории своего существования

    Снималось в: США
    Киностудия: Columbia Pictures, Sony Pictures Animation
    Время просмотра: 01: 29: 46
    Перевод текста: Дублированный | Лицензия
    Файл
    Качество фильма: BDRip 720p
    Информация о видео: MPEG-4 AVC, 1280x690, 5464 Kbit/s, 23.976 fps
    Информация о звуке:
    Информация о звуке #01: 48 kHz, AC3, 5.1, 640 Kbps | Дублированный | RUS|
    Информация о звуке #02: 48 kHz, DTS, 5.1, 1510 Kbps | Оригинал | ENG|
    Субтитры: Русские (forced, full), английские

    MI
    General
    Unique ID : 190858702591947113122412588553738903437 (0x8F960C8E55FAF19EAFFE4A753D47DF8D)
    Complete name : E: VideoSmurfs.The.Lost.Village.2017.Lic.BDRip.720p.ExKinoRay.mkv
    Format : Matroska
    Format version : Version 2
    File size : 4.77 GiB
    Duration : 1 h 29 min
    Overall bit rate : 7 613 kb/s
    Encoded date : UTC 2017-10-04 16: 46: 16
    Writing application : mkvmerge v5.8.0 (;No Sleep/Pillow;) built on Sep 2 2012 15: 37: 04
    Writing library : libebml v1.2.3 + libmatroska v1.3.0
    Video
    ID : 1
    Format : AVC
    Format/Info : Advanced Video Codec
    Format profile : High@L4.1
    Format settings : CABAC/9 Ref Frames
    Format settings, CABAC : Yes
    Format settings, RefFrames : 9 frames
    Muxing mode : Header stripping
    Codec ID : V_MPEG4/ISO/AVC
    Duration : 1 h 29 min
    Bit rate : 5 464 kb/s
    Width : 1 280 pixels
    Height : 690 pixels
    Display aspect ratio : 1.85: 1
    Frame rate mode : Constant
    Frame rate : 23.976 (24000/1001) FPS
    Color space : YUV
    Chroma subsampling : 4: 2: 0
    Bit depth : 8 bits
    Scan type : Progressive
    Bits/(Pixel*Frame) : 0.258
    Stream size : 3.33 GiB (70%)
    Writing library : x264 core 148 r2597 e86f3a1
    Encoding settings : cabac=1/ref=9/deblock=1: 0: 0/analyse=0x3: 0x113/me=umh/subme=10/psy=1/psy_rd=1.05: 0.10/mixed_ref=1/me_range=32/chroma_me=1/trellis=2/8x8dct=1/cqm=0/deadzone=21, 11/fast_pskip=0/chroma_qp_offset=-2/threads=12/lookahead_threads=1/sliced_threads=0/nr=0/decimate=1/interlaced=0/bluray_compat=0/constrained_intra=0/bframes=6/b_pyramid=2/b_adapt=2/b_bias=0/direct=3/weightb=1/open_gop=0/weightp=2/keyint=250/keyint_min=23/scenecut=40/intra_refresh=0/rc=2pass/mbtree=0/bitrate=5464/ratetol=1.0/qcomp=0.70/qpmin=0/qpmax=69/qpstep=4/cplxblur=20.0/qblur=0.5/ip_ratio=1.40/pb_ratio=1.30/aq=2: 1.00
    Language : English
    Default : Yes
    Forced : No
    Audio #1
    ID : 2
    Format : AC-3
    Format/Info : Audio Coding 3
    Format settings, Endianness : Big
    Muxing mode : Header stripping
    Codec ID : A_AC3
    Duration : 1 h 29 min
    Bit rate mode : Constant
    Bit rate : 640 kb/s
    Channel(s) : 6 channels
    Channel positions : Front: L C R, Side: L R, LFE
    Sampling rate : 48.0 kHz
    Frame rate : 31.250 FPS (1536 SPF)
    Bit depth : 16 bits
    Compression mode : Lossy
    Stream size : 411 MiB (8%)
    Title : Dub License
    Language : Russian
    Service kind : Complete Main
    Default : Yes
    Forced : No
    Audio #2
    ID : 3
    Format : DTS
    Format/Info : Digital Theater Systems
    Mode : 16
    Format settings, Endianness : Big
    Muxing mode : Header stripping
    Codec ID : A_DTS
    Duration : 1 h 29 min
    Bit rate mode : Constant
    Bit rate : 1 509 kb/s
    Channel(s) : 6 channels
    Channel positions : Front: L C R, Side: L R, LFE
    Sampling rate : 48.0 kHz
    Frame rate : 93.750 FPS (512 SPF)
    Bit depth : 24 bits
    Compression mode : Lossy
    Stream size : 969 MiB (20%)
    Title : Original
    Language : English
    Default : No
    Forced : No
    Text #1
    ID : 4
    Format : UTF-8
    Codec ID : S_TEXT/UTF8
    Codec ID/Info : UTF-8 Plain Text
    Title : Forced
    Language : Russian
    Default : Yes
    Forced : No
    Text #2
    ID : 5
    Format : UTF-8
    Codec ID : S_TEXT/UTF8
    Codec ID/Info : UTF-8 Plain Text
    Title : Full
    Language : Russian
    Default : No
    Forced : No
    Text #3
    ID : 6
    Format : UTF-8
    Codec ID : S_TEXT/UTF8
    Codec ID/Info : UTF-8 Plain Text
    Title : Full
    Language : English
    Default : No
    Forced : No
    Text #4
    ID : 7
    Format : UTF-8
    Codec ID : S_TEXT/UTF8
    Codec ID/Info : UTF-8 Plain Text
    Title : SDH
    Language : English
    Default : No
    Forced : No
    Text #5
    ID : 8
    Format : UTF-8
    Codec ID : S_TEXT/UTF8
    Codec ID/Info : UTF-8 Plain Text
    Title : SDH (Colored)
    Language : English
    Default : No
    Forced : No
    Menu
    00: 00: 00.000 : en: 00: 00: 00.000
    00: 08: 48.445 : en: 00: 08: 48.445
    00: 11: 03.413 : en: 00: 11: 03.413
    00: 14: 33.748 : en: 00: 14: 33.748
    00: 21: 21.071 : en: 00: 21: 21.071
    00: 27: 25.143 : en: 00: 27: 25.143
    00: 30: 33.540 : en: 00: 30: 33.540
    00: 36: 49.082 : en: 00: 36: 49.082
    00: 42: 41.350 : en: 00: 42: 41.350
    00: 45: 58.673 : en: 00: 45: 58.673
    00: 50: 35.950 : en: 00: 50: 35.950
    00: 55: 41.964 : en: 00: 55: 41.964
    00: 57: 03.587 : en: 00: 57: 03.587
    01: 02: 35.293 : en: 01: 02: 35.293
    01: 09: 07.769 : en: 01: 09: 07.769
    01: 14: 39.475 : en: 01: 14: 39.475
    01: 19: 34.478 : en: 01: 19: 34.478

    Релиз подготовил: Автор релиза:
    Подпишись на меня, кликни по картинке :


    Онлайн видео Смурфики: Затерянная деревня


    Размер скачиваемого торрента: 4.77 GB (5126109319 Bytes)

    Смурфики: Затерянная деревня/Smurfs: The Lost Village (2017) BDRip 720p от ExKinoRay | Лицензия
    загрузка...
    Рейтинг →
     (голосов: 1, оценка 4/5, голосовать можно 1 раз )

    Другие торренты по теме:

  • Смурфики: Затерянная деревня / Smurfs: The Lost Village (2017) HDRip от MegaPeer | iTunes
  • Смурфики: Затерянная деревня / Smurfs: The Lost Village (2017) BDRip 1080p от ExKinoRay | iTunes
  • Смурфики: Затерянная деревня / Smurfs: The Lost Village (2017) BDRip 1080p | iTunes
  • Смурфики: Затерянная деревня / Smurfs: The Lost Village (2017) BDRip от ExKinoRay | iTunes
  • Смурфики: Затерянная деревня / Smurfs: The Lost Village (2017) BDRemux 1080p от ExKinoRay | iTunes
  • Смурфики: Затерянная деревня / Smurfs: The Lost Village (2017) HDRip-AVC от ExKinoRay | iTunes
  • Смурфики: Затерянная деревня / Smurfs: The Lost Village (2017) BDRemux 1080p от ExKinoRay | 3D-Video | iTunes
  • Смурфики: Затерянная деревня / Smurfs: The Lost Village (2017) BDRip 1080p от Ash61 | 3D-Video | halfOU | iTunes


    • Комментарии (0):

      Информация

      Информация

        Посетители, находящиеся в группе Гости, не могут оставлять комментарии в данной новости.

        ↓ Меню



        ↓ Опрос

        А Вы добавили сайт в закладки?
        Да
        Не


        Top 10 за месяц (Мультфильмы)