.
Авторизация | Регистрация
Хочешь лучшие торренты? Добавь свой email!
Добавить
» » Капитан Подштанник: Первый эпический фильм / Captain Underpants: The First Epic Movie (2017) BDRip 720p | L скачать торрент бесплатно




    Капитан Подштанник: Первый эпический фильм / Captain Underpants: The First Epic Movie (2017) BDRip 720p | L скачать торрент бесплатно

    Опубликовал: Админ | Дата: 5-10-2017, 11:01 | Просмотров: 0



    Детально о кино
    Наименование: Капитан Подштанник: Первый эпический фильм
    Оригинальное наименование: Captain Underpants: The First Epic Movie
    Произведено: США
    Категория: мультфильм, боевик, комедия, семейный
    Главный режиссер постановщик: Дэвид Сорен
    В главных ролях: Эд Хелмс, Кевин Харт, Ник Кролл, Томас Миддлдитч, Джордан Пил, Кристен Шаал, Ди Ди Решер, Брайан Посен, Дэвид Сорен, Мэл Родригез

    Сюжет фильма

    Двое учеников начальной школы загипнотизировали директора школы так, что он стал супергероем, помогающим их одноклассникам.

    Файл
    Качество фильма: BDRip 720p
    Информация о видео данные: MKV, 1280x688 (1.85: 1), 23.976 fps, 4000 Кбит/с
    Информация о звуке данные: Русский (MP3, 2 ch, 320 Кбит/с)
    Перевод текста: Любительский многоголосый (GreenРай Studio)
    Время просмотра: 01: 29: 34
    Mediainfo
    General
    Unique ID : 216483027119178419964480263686699980188 (0xA2DD1D4BCFBFB51EBC99CF418AB5959C)
    Complete name : D: МультикCaptain.Underpants.The.First.Epic.Movie.2017.P.BDRip.720p.mkv
    Format : Matroska
    Format version : Version 4/Version 2
    File size : 2.68 GiB
    Duration : 1 h 29 min
    Overall bit rate mode : Constant
    Overall bit rate : 4 293 kb/s
    Encoded date : UTC 2017-10-03 06: 49: 06
    Writing application : mkvmerge v8.3.0 (;Over the Horizon;) 64bit
    Writing library : libebml v1.3.1 + libmatroska v1.4.2
    Video
    ID : 1
    Format : AVC
    Format/Info : Advanced Video Codec
    Format profile : Main@L3.1
    Format settings, CABAC : Yes
    Format settings, ReFrames : 3 frames
    Format settings, GOP : M=4, N=15
    Codec ID : V_MPEG4/ISO/AVC
    Duration : 1 h 29 min
    Bit rate mode : Constant
    Bit rate : 4 000 kb/s
    Width : 1 280 pixels
    Height : 688 pixels
    Display aspect ratio : 1.85: 1
    Frame rate mode : Constant
    Frame rate : 23.976 (23976/1000) FPS
    Standard : NTSC
    Color space : YUV
    Chroma subsampling : 4: 2: 0
    Bit depth : 8 bits
    Scan type : Progressive
    Bits/(Pixel*Frame) : 0.189
    Stream size : 2.47 GiB (92%)
    Language : English
    Default : Yes
    Forced : No
    Color range : Limited
    Audio
    ID : 2
    Format : MPEG Audio
    Format version : Version 1
    Format profile : Layer 3
    Mode : Joint stereo
    Codec ID : A_MPEG/L3
    Codec ID/Hint : MP3
    Duration : 1 h 29 min
    Bit rate mode : Constant
    Bit rate : 320 kb/s
    Channel(s) : 2 channels
    Sampling rate : 48.0 kHz
    Frame rate : 41.667 FPS (1152 spf)
    Compression mode : Lossy
    Stream size : 204 MiB (7%)
    Default : Yes
    Forced : No

    ВНИМАНИЕ! Присутствует реклама!
    Скриншоты

    Релиз подготовил:

    Онлайн видео Капитан Подштанник: Первый эпический фильм


    Размер скачиваемого торрента: 2.68 GB (2873086264 Bytes)

    Капитан Подштанник: Первый эпический фильм/Captain Underpants: The First Epic Movie (2017) BDRip 720p | L
    загрузка...
    Рейтинг →
     (голосов: 1, оценка 5/5, голосовать можно 1 раз )

    Другие торренты по теме:

  • Капитан Подштанник: Первый эпический фильм / Captain Underpants: The First Epic Movie (2017) HDRip от MegaPeer | Лицензия
  • Капитан Подштанник: Первый эпический фильм / Captain Underpants: The First Epic Movie (2017) BDRip 1080p | Лицензия
  • Капитан Подштанник: Первый эпический фильм / Captain Underpants: The First Epic Movie (2017) Blu-ray CEE 1080p | Лицензия
  • Капитан Подштанник: Первый эпический фильм / Captain Underpants: The First Epic Movie (2017) BDRip 720p от KinoGadget | iPad | Лицензия
  • Капитан Подштанник: Первый эпический фильм / Captain Underpants: The First Epic Movie (2017) BDRip от HQCLUB | P | Лицензия
  • Капитан Подштанник: Первый эпический фильм / Captain Underpants: The First Epic Movie (2017) HDRip от Kaztorrents | КПК | Лицензия


    • Комментарии (0):

      Информация

      Информация

        Посетители, находящиеся в группе Гости, не могут оставлять комментарии в данной новости.

        ↓ Меню



        ↓ Опрос

        А Вы добавили сайт в закладки?
        Да
        Не


        Top 10 за месяц (Мультфильмы)