.
Авторизация | Регистрация
Хочешь лучшие торренты? Добавь свой email!
Добавить
» » Рапунцель: Новая история / Tangled (2017) SATRip от NewTeam | D скачать торрент бесплатно




    Рапунцель: Новая история / Tangled (2017) SATRip от NewTeam | D скачать торрент бесплатно

    Опубликовал: Админ | Дата: 20-09-2017, 11:01 | Просмотров: 0



    Мы В КОНТАКТЕ

    Создали в: 2017
    Снималось в: США, 9 Story Entertainment, Walt Disney Television Animation
    Категория жанра: мультсериал, детский, семейный, приключения
    Время просмотра: ~ 00: 21: 36/серия
    Перевод текста: Профессиональный (дублированный)
    Субтитры: нет
    Оригинальная аудиодорожка: нет
    Главный режиссёр: Том Колфилд/Tom Caulfield, Крис Сонненбург/Chris Sonnenburg

    Озвучивали: Закари Левай, Мэнди Мур, Иден Эспиноза, Клэнси Браун, Джули Боуэн, Джереми Джордан, Джонатан Бэнкс, Донна Мерфи, Шон Хейс, Джефф Росс...
    Описание: В центре сюжета - продолжение приключений Рапунцель и ее друзей. Прошло полгода с тех пор, как девушка вернулась домой и вновь обрела своих родителей. Совсем скоро должна состояться ее коронация. Пока все во дворце готовятся к пышному торжеству, Рапунцель нужно усвоить множество жизненных уроков и разобраться с новыми для нее обязанностями Принцессы. Помогать Рапунцель в этом нелёгком деле будут верные друзья: фрейлина Кассандра, возлюбленный Юджин, конь Максимус и хамелеон Паскаль ...


    Качество фильма видео: SATRip
    Тип видео видео: AVI
    Информация о видео: 720x400 (16: 9), 25.000 fps, XviD ~ 1800 kbps avg, 0.250 bit/pixel
    Информация о звуке: 48 kHz, Dolby AC3 2.0 192 kbps, русский
    Дополнительно: Список серий позаимствован из английского Вики: https: //en.wikipedia.org/wiki/Tangled: _The_Series#Season_1_.282017.29
    Релиз подготовил:

    Серии

    01. Ветер в моих волосах/What the Hair?!, 24 марта 2017
    02. Rapunzel;s Enemy, 31 марта 2017
    03. Fitzherbert P.I., 7 апреля 2017
    04. Challenge of the Brave, 14 апреля 2017
    05. Cassandra v. Eugene, 21 апреля 2017
    06. The Return of Strongbow, 28 апреля 2017
    07. In Like Flynn, 23 июля 2017
    08. Great Expotations, 30 июля 2017
    09. Under Raps, 6 августа 2017
    10. One Angry Princess, 13 августа 2017
    11. Pascal;s Story, 20 августа 2017
    12. Big Brothers of Corona, 1 октября 2017
    13. The Wrath of Ruthless Ruth, 8 октября 2017
    14. Max;s Enemy, 15 октября 2017
    15. The Way of the Willow, 22 октября 2017


    Внимание! Раздача ведётся путём добавления новых серий

    Чтобы начать докачку новой серии, пользователям необходимо сделать следующее:
    (1)остановить скачивание,
    (2)удалить старый торрент у себя из клиента (старые серии удалять не надо),
    (3)скачать новый торрент и запустить его у себя в клиенте вместо старого, при этом указать клиенту путь в старую папку куда и должно происходить скачивание новых серий.
    Ваш клиент при этом должен произвести хеширование (проверку) старой папки (если не производит сам - помогите ему сделать это), и будет докачивать только те серии которых у вас ещё нет. Старые серии при этом не удаляются, а продолжают раздаваться!
    Eсли вы уже удалили старые серии, то предотвратить повторную закачку старых серий можно, отжав галочку в соответсвующих местах при запуске нового торрента.По возможности, желательно не удалять старые серии как можно дольше чтобы релизёр не столько продолжал раздавать старые серии, а смог сконцентрироваться на новых.

    MediaInfo

    Общее
    Формат : AVI
    Формат/Информация : Audio Video Interleave
    Размер файла : 309 Мбайт
    Продолжительность : 21 м.
    Общий поток : 2001 Кбит/сек
    Программа кодирования : VirtualDubMod 1.5.10.3 | www.virtualdub-fr.org || (build 2550/release)
    Библиотека кодирования : VirtualDubMod build 2550/release
    Видео
    Идентификатор : 0
    Формат : MPEG-4 Visual
    Профиль формата : Advanced Simple@L5
    Параметр BVOP формата : 1
    Параметр QPel формата : Нет
    Параметр GMC формата : Без точки перехода
    Параметр матрицы формата : Выборочная
    Идентификатор кодека : XVID
    Идентификатор кодека/Подсказка : XviD
    Продолжительность : 21 м.
    Битрейт : 1800 Кбит/сек
    Ширина : 720 пикселей
    Высота : 400 пикселей
    Соотношение сторон : 16: 9
    Частота кадров : 25, 000 кадров/сек
    Цветовое пространство : YUV
    Субдискретизация насыщенности : 4: 2: 0
    Битовая глубина : 8 бит
    Тип развёртки : Прогрессивная
    Метод сжатия : С потерями
    Бит/(Пиксели*Кадры) : 0.250
    Размер потока : 278 Мбайт (90%)
    Библиотека кодирования : XviD 73
    Аудио
    Идентификатор : 1
    Формат : AC-3
    Формат/Информация : Audio Coding 3
    Расширение режима : CM (complete main)
    Параметр Endianness формата : Big
    Идентификатор кодека : 2000
    Продолжительность : 21 м.
    Вид битрейта : Постоянный
    Битрейт : 192 Кбит/сек
    Каналы : 2 канала
    Расположение каналов : Front: L R
    Частота : 48, 0 КГц
    Битовая глубина : 16 бит
    Метод сжатия : С потерями
    Размер потока : 29, 7 Мбайт (10%)
    Выравнивание : Разделение по промежуткам
    Продолжительность промежутка : 40 мс. (1, 00 видеокадр)
    Время предзагрузки промежутка : 500 мс.

    Скриншоты




    Онлайн видео Рапунцель: Новая история


    Размер скачиваемого торрента: 309.23 MB (324251648 Bytes)

    Рапунцель: Новая история/Tangled (2017) SATRip от NewTeam | D
    загрузка...
    Рейтинг →
     (голосов: 1, оценка 3/5, голосовать можно 1 раз )

    Другие торренты по теме:

  • Рапунцель: Новая история / Tangled (2017) WEBRip 720p | D
  • Рапунцель: Новая история / Tangled (2017) WEBRip, HDTV 720p | D
  • Рапунцель: Новая история / Tangled (2017) SATRip-AVC от NewTeam | D


    • Комментарии (0):

      Информация

      Информация

        Посетители, находящиеся в группе Гости, не могут оставлять комментарии в данной новости.

        ↓ Меню



        ↓ Опрос

        А Вы добавили сайт в закладки?
        Да
        Не


        Top 10 за месяц (Мультфильмы)