.
Авторизация | Регистрация
Хочешь лучшие торренты? Добавь свой email!
Добавить
» » Босс-молокосос / The Boss Baby (2017) BDRip 1080p от ExKinoRay | Лицензия скачать торрент бесплатно




    Босс-молокосос / The Boss Baby (2017) BDRip 1080p от ExKinoRay | Лицензия скачать торрент бесплатно

    Опубликовал: Админ | Дата: 19-09-2017, 11:01 | Просмотров: 0



    Детально о кино
    Русское название: Босс-молокосос
    Русское название в мировом прокате: The Boss Baby
    Создали в: 2017
    Категория жанра: Мультфильм, приключения, комедия, семейный, полнометражный
    Главный режиссер: Том МакГрат

    Актеры
    Майлз Кристофер Бакши, Алек Болдуин, Эрик Белл мл., Стив Бушеми, Джимми Киммел, Лиза Кудроу, Тоби Магуайр, ВивиЭнн Йи
    О фильме:
    Эта актуальная во все времена история для взрослых и детей рассказывается от лица семилетнего брата новорожденного — фантазера Тима, который ревнует его к родителям. Но главный герой — совсем не простой ребенок, он обладает лидерскими задатками, уже носит деловые костюмы и во всем видит бизнес-задачу

    Снималось в: США
    Киностудия: DreamWorks Animation
    Время просмотра: 01: 37: 30
    Перевод текста: Дублированный | Лицензия
    Файл
    Качество фильма: BDRip 1080p
    Информация о видео: MPEG-4 AVC, 1920x816, 7964 Kbit/s, 23.976 fps
    Информация о звуке:
    Информация о звуке #01: 48 kHz, DTS, 5.1, 768 Kbps | Дублированный | RUS|
    Информация о звуке #02: 48 kHz, AC3, 5.1, 448 Kbps | Дублированный | RUS|
    Информация о звуке #03: 48 kHz, DTS, 5.1, 1510 Kbps | Оригинал | ENG|
    Субтитры: Русские (forced, full), английские

    MI
    General
    Unique ID : 233645277591567505805910573783177867750 (0xAFC67192E76B0006BFFCD36DFE2DB1E6)
    Complete name : F: VideoThe.Boss.Baby.2017.Lic.BDRip.1080p.ExKinoRay.mkv
    Format : Matroska
    Format version : Version 4/Version 2
    File size : 7.28 GiB
    Duration : 1 h 37 min
    Overall bit rate : 10.7 Mb/s
    Movie name : The Boss Baby (2017) from ExKinoRay
    Encoded date : UTC 2017-09-18 18: 07: 54
    Writing application : mkvmerge v15.0.0 (;Duel with the Devil;) 64-bit
    Writing library : libebml v1.3.5 + libmatroska v1.4.5
    Video
    ID : 1
    Format : AVC
    Format/Info : Advanced Video Codec
    Format profile : High@L4.1
    Format settings, CABAC : Yes
    Format settings, RefFrames : 4 frames
    Codec ID : V_MPEG4/ISO/AVC
    Duration : 1 h 37 min
    Bit rate : 7 964 kb/s
    Width : 1 920 pixels
    Height : 816 pixels
    Display aspect ratio : 2.35: 1
    Frame rate mode : Constant
    Frame rate : 23.976 (24000/1001) FPS
    Color space : YUV
    Chroma subsampling : 4: 2: 0
    Bit depth : 8 bits
    Scan type : Progressive
    Bits/(Pixel*Frame) : 0.212
    Stream size : 5.42 GiB (74%)
    Writing library : x264 core 152 r2851+45 9658d1a 7mod 8-bit@all X86_64
    Encoding settings : cabac=1/ref=4/deblock=1: -1: -1/analyse=0x3: 0x113/me=umh/subme=10/psy=1/fade_compensate=0.00/psy_rd=0.60: 0.10/mixed_ref=1/me_range=64/chroma_me=1/trellis=2/8x8dct=1/cqm=0/deadzone=21, 11/fast_pskip=0/chroma_qp_offset=-3/threads=18/lookahead_threads=1/sliced_threads=0/nr=0/decimate=1/interlaced=0/bluray_compat=0/constrained_intra=0/fgo=0/bframes=8/b_pyramid=2/b_adapt=2/b_bias=0/direct=3/weightb=1/open_gop=0/weightp=2/keyint=240/keyint_min=23/scenecut=40/intra_refresh=0/rc_lookahead=240/rc=2pass/mbtree=1/bitrate=7964/ratetol=1.0/qcomp=0.75/qpmin=0: 0: 0/qpmax=69: 69: 69/qpstep=4/cplxblur=20.0/qblur=0.5/vbv_maxrate=38000/vbv_bufsize=30000/nal_hrd=none/filler=0/ip_ratio=1.40/aq=3: 0.90/aq-sensitivity=10.00/aq-factor=1.00: 1.00: 1.00/aq2=0/aq3=0
    Language : English
    Default : Yes
    Forced : No
    Audio #1
    ID : 2
    Format : DTS
    Format/Info : Digital Theater Systems
    Mode : 16
    Format settings, Endianness : Big
    Codec ID : A_DTS
    Duration : 1 h 37 min
    Bit rate mode : Constant
    Bit rate : 768 kb/s
    Channel(s) : 6 channels
    Channel positions : Front: L C R, Side: L R, LFE
    Sampling rate : 48.0 kHz
    Frame rate : 93.750 FPS (512 SPF)
    Bit depth : 24 bits
    Compression mode : Lossy
    Stream size : 536 MiB (7%)
    Title : Dub License
    Language : Russian
    Default : Yes
    Forced : No
    Audio #2
    ID : 3
    Format : AC-3
    Format/Info : Audio Coding 3
    Format settings, Endianness : Big
    Codec ID : A_AC3
    Duration : 1 h 37 min
    Bit rate mode : Constant
    Bit rate : 448 kb/s
    Channel(s) : 6 channels
    Channel positions : Front: L C R, Side: L R, LFE
    Sampling rate : 48.0 kHz
    Frame rate : 31.250 FPS (1536 SPF)
    Bit depth : 16 bits
    Compression mode : Lossy
    Stream size : 312 MiB (4%)
    Title : Dub License
    Language : Russian
    Service kind : Complete Main
    Default : No
    Forced : No
    Audio #3
    ID : 4
    Format : DTS
    Format/Info : Digital Theater Systems
    Format profile : ES Matrix/Core
    Mode : 16
    Format settings, Endianness : Big
    Codec ID : A_DTS
    Duration : 1 h 37 min
    Bit rate mode : Constant
    Bit rate : 1 509 kb/s
    Channel(s) : 7 channels/6 channels
    Channel positions : Front: L C R, Side: L R, Back: C, LFE/Front: L C R, Side: L R, LFE
    Sampling rate : 48.0 kHz
    Frame rate : 93.750 FPS (512 SPF)
    Bit depth : 24 bits
    Compression mode : Lossy
    Stream size : 1.03 GiB (14%)
    Title : Original
    Language : English
    Default : No
    Forced : No
    Text #1
    ID : 5
    Format : UTF-8
    Codec ID : S_TEXT/UTF8
    Codec ID/Info : UTF-8 Plain Text
    Duration : 1 h 19 min
    Bit rate : 0 b/s
    Count of elements : 21
    Stream size : 437 Bytes (0%)
    Title : Forced
    Language : Russian
    Default : Yes
    Forced : No
    Text #2
    ID : 6
    Format : UTF-8
    Codec ID : S_TEXT/UTF8
    Codec ID/Info : UTF-8 Plain Text
    Duration : 1 h 36 min
    Bit rate : 93 b/s
    Count of elements : 1587
    Stream size : 65.9 KiB (0%)
    Title : Full
    Language : Russian
    Default : No
    Forced : No
    Text #3
    ID : 7
    Format : UTF-8
    Codec ID : S_TEXT/UTF8
    Codec ID/Info : UTF-8 Plain Text
    Duration : 1 h 36 min
    Bit rate : 59 b/s
    Count of elements : 1568
    Stream size : 42.1 KiB (0%)
    Title : Full
    Language : English
    Default : No
    Forced : No
    Menu
    00: 00: 00.000 : en: 00: 00: 00.000
    00: 03: 45.892 : en: 00: 03: 45.892
    00: 08: 58.288 : en: 00: 08: 58.288
    00: 11: 45.914 : en: 00: 11: 45.914
    00: 14: 59.565 : en: 00: 14: 59.565
    00: 19: 38.219 : en: 00: 19: 38.219
    00: 22: 52.788 : en: 00: 22: 52.788
    00: 28: 27.247 : en: 00: 28: 27.247
    00: 30: 26.116 : en: 00: 30: 26.116
    00: 33: 45.482 : en: 00: 33: 45.482
    00: 36: 57.257 : en: 00: 36: 57.257
    00: 39: 18.356 : en: 00: 39: 18.356
    00: 42: 35.344 : en: 00: 42: 35.344
    00: 46: 20.611 : en: 00: 46: 20.611
    00: 51: 37.720 : en: 00: 51: 37.720
    00: 53: 25.285 : en: 00: 53: 25.285
    00: 56: 28.719 : en: 00: 56: 28.719
    00: 59: 35.405 : en: 00: 59: 35.405
    01: 04: 03.173 : en: 01: 04: 03.173
    01: 08: 15.758 : en: 01: 08: 15.758
    01: 11: 29.911 : en: 01: 11: 29.911
    01: 16: 25.247 : en: 01: 16: 25.247
    01: 23: 10.110 : en: 01: 23: 10.110
    01: 27: 36.960 : en: 01: 27: 36.960

    Релиз подготовил: Автор релиза: Подпишись на меня:


    Онлайн видео Босс-молокосос


    Размер скачиваемого торрента: 7.28 GB (7820342207 Bytes)

    Босс-молокосос/The Boss Baby (2017) BDRip 1080p от ExKinoRay | Лицензия
    загрузка...
    Рейтинг →
     (голосов: 1, оценка 5/5, голосовать можно 1 раз )

    Другие торренты по теме:

  • Босс-молокосос / The Boss Baby (2017) TS | D
  • Босс-молокосос / The Boss Baby (2017) WEB-DLRip от MegaPeer | iTunes
  • Босс-молокосос / The Boss Baby (2017) WEB-DL 720p от ExKinoRay | iTunes
  • Босс-молокосос / The Boss Baby (2017) WEB-DLRip от ImperiaFilm | КПК | iTunes
  • Босс-молокосос / The Boss Baby (2017) WEB-DLRip-AVC от OlLanDGroup | iTunes
  • Босс-молокосос / The Boss Baby (2017) WEB-DLRip от MegaPeer | iTunes
  • Босс-молокосос / The Boss Baby (2017) WEB-DLRip от Scarabey | iTunes
  • Босс-молокосос / The Boss Baby (2017) BDRip-AVC от R.G.Resident | iTunes


    • Комментарии (0):

      Информация

      Информация

        Посетители, находящиеся в группе Гости, не могут оставлять комментарии в данной новости.

        ↓ Меню



        ↓ Опрос

        А Вы добавили сайт в закладки?
        Да
        Не


        Top 10 за месяц (Мультфильмы)