.
Авторизация | Регистрация
Хочешь лучшие торренты? Добавь свой email!
Добавить




Кот в сапогах (1996) WEB-DL 720p скачать торрент бесплатно

Опубликовал: Админ | Дата: 29-08-2017, 11:01 | Просмотров: 0



Детально о кино
Русское название: Кот в сапогах
Создали в: 1996
Категория жанра: мультфильм, приключения, мюзикл, короткометражный, для взрослых
Главный режиссер: Гарри Бардин

Актеры
Константин Райкин, Евгений Стычкин, Рогволд Суховерко, К. Смирнов

Слоган: Из Россия в Европу и обратно…


Сюжет фильма
Кот в мешке прибывает в Россию как часть гуманитарной помощи из Америки и достаётся молодому пьянице и горе-патриоту Карабасову, которому предлагает эмигрировать в Америку. Полёт на волшебном коте, который использует хвост в качестве пропеллера, обрывается над Европой. Там зазнавшийся юноша забывает о неоценимых услугах, которые оказал ему Кот в сапогах, и тот возвращает неблагодарного обратно в Россию…



Снималось в: Россия/Роскомкино, Студия Стайер
Время просмотра: 00: 27: 10
Перевод текста: не требуется

Файл
Качество фильма: WEB-DL 720p
Тип видео: MKV
Информация о видео: AVC, 3482 Кбит/сек, 960x720
Информация о звуке: AC3, 2 ch, 256 Кбит/сек
Субтитры: нет



Релиз подготовил:
MediaInfo:
Формат : Matroska
Версия формата : Version 4/Version 2
Размер файла : 726 Мбайт
Продолжительность : 27 м. 9 с.
Общий поток : 3740 Кбит/сек
Название фильма : Кот в сапогах
Дата кодирования : UTC 2017-08-28 09: 29: 59
Программа кодирования : mkvmerge v13.0.0 (;The Juggler;) 64bit
Библиотека кодирования : libebml v1.3.4 + libmatroska v1.4.5/XviD4PSP 6.0/54.29.105

Видео
Идентификатор : 1
Формат : AVC
Формат/Информация : Advanced Video Codec
Профиль формата : Main@L4.1
Параметр CABAC формата : Да
Параметр ReFrames формата : 5 кадров
Идентификатор кодека : V_MPEG4/ISO/AVC
Продолжительность : 27 м. 9 с.
Битрейт : 3482 Кбит/сек
Ширина : 960 пикселей
Высота : 720 пикселей
Соотношение сторон : 4: 3
Режим частоты кадров : Постоянный
Частота кадров : 25, 000 кадров/сек
Цветовое пространство : YUV
Субдискретизация насыщенности : 4: 2: 0
Битовая глубина : 8 бит
Тип развёртки : Прогрессивная
Бит/(Пиксели*Кадры) : 0.202
Размер потока : 676 Мбайт (93%)
Язык : Russian
Default : Да
Forced : Нет

Аудио
Идентификатор : 2
Формат : AC-3
Формат/Информация : Audio Coding 3
Расширение режима : CM (complete main)
Параметр Endianness формата : Big
Идентификатор кодека : A_AC3
Продолжительность : 27 м. 7 с.
Вид битрейта : Постоянный
Битрейт : 256 Кбит/сек
Каналы : 2 канала
Расположение каналов : Front: L R
Частота : 48, 0 КГц
Частота кадров : 31, 250 кадров/сек (1536 spf)
Битовая глубина : 16 бит
Метод сжатия : С потерями
Задержка видео : 27 мс.
Размер потока : 49, 7 Мбайт (7%)
Язык : Russian
Default : Да
Forced : Нет
Скриншоты


Размер скачиваемого торрента: 726.47 MB (761760942 Bytes)

Кот в сапогах (1996) WEB-DL 720p
загрузка...
Рейтинг →
 (голосов: 1, оценка 5/5, голосовать можно 1 раз )

Другие торренты по теме:

  • Кот в сапогах / Puss in Boots (2011) BDRip-AVC | iPad
  • Кот в сапогах: Три Чертенка / Puss in Boots: The Three Diablos (2011) BDRip-AVC | iPad
  • Кот в Сапогах / Puss in Boots (2011) BDRip-720p | Дополнительные материалы
  • Кот в сапогах / Puss in Boots (2011) BDRip 720p от Leonardo and Scarabey скачать через торрент бесплатно
  • Кот в Сапогах: Три дьяволёнка / Puss in Boots: The Three Diablos (2011) BDRip 720 от SuperMin скачать через торрент бесплатно
  • Приключения кота в сапогах / The Adventures of Puss in Boots (2015) WEBRip 720p | NewStudio
  • Приключения кота в сапогах / The Adventures of Puss in Boots (2015) WEBRip | NewStudio
  • Невеста в сапогах / The Bride Wore Boots / 1946 / АП (Есарев), СТ / DVDRip


    • Комментарии (0):

      Информация

      Информация

        Посетители, находящиеся в группе Гости, не могут оставлять комментарии в данной новости.

        ↓ Меню



        ↓ Опрос

        А Вы добавили сайт в закладки?
        Да
        Не


        Top 10 за месяц (Мультфильмы)