.
Авторизация | Регистрация
Хочешь лучшие торренты? Добавь свой email!
Добавить
» » Веселые мелодии / Looney Tunes (1931-2011) BDRip (AVC), DVDRip-AVC от New-Team | P скачать торрент бесплатно




    Веселые мелодии / Looney Tunes (1931-2011) BDRip (AVC), DVDRip-AVC от New-Team | P скачать торрент бесплатно

    Опубликовал: Админ | Дата: 26-08-2017, 11:00 | Просмотров: 2



    Снималось в: США
    Создали в: 1931-2011
    Киностудии: Warner Bros. Animation
    Категория жанра: мультфильм, короткометражка, комедия, семейный
    Время просмотра: ~ 8 минут/серия
    Перевод текста: Профессиональный (Многоголосый закадровый)
    Субтитры: русский, английский (не у всех серий есть русские и английские субтитры, это отмечено под спойлером Серии)
    Оригинальная аудиодорожка: английский (аудиодорожка отсутствует в малом числе рипов, указано под спойлером Серии)

    Главный режиссеры: Фрэнк Тэшлин/Frank Tashlin, Текс Эйвери/Tex Avery, Фриц Фрилинг/Friz Freleng, Кэл Далтон/Cal Dalton, Кэл Ховард/Cal Howard, Чак Джонс/Chuck Jones, Рудольф Исинг/Rudolf Ising

    Озвучивали: Мэл Бланк, Тед Пирс, Дэйв Вебер, Томми Бонд, Бернисе Хансен, The Varsity Three, Текс Эйвери, Джон Диринг, The Four Blackbirds, Делос Джукес, Джорджия Старк, Билли Блэтчер, Джонни Дэвис, Джо Догерти, Бернисе Хансен, Марта Вентуорф, Дэнни Уэбб, Элвия Оллман, Сара Бернер, Фил Крамер, Клифф Назарро, Джордж МакФарлэнд, Poley McClintock, The Pied Pipers, Мэйбл Тодд, Би Бенадерет, Карлтон Каделл, Джонни Мюррэй, The Rhythmettes...
    Описание: Сборник короткометражных мультфильмов. Производство Уорнер Бразерс, США, 1931-2011 гг. Для любой зрительской аудитории. Фильмы перешли в общественное достояние на территории Российской Федерации.

    Качество фильма: BDRip-AVC, DVDRip-AVC
    Тип видео: MKV
    Информация о видео: от 720x480@640x480 до 800x584 (4: 3), 23.976 - 25.000 fps, MPEG-4 AVC ~ 1809 kbps avg, 0.218 - 0.174 bit/pixel
    Информация о звуке 1: 48 kHz, Dolby AC3 5.1 384 kbps (Dolby AC3 2.0 192 kbps), русский
    Информация о звуке 2: 48 kHz, Dolby AC3 5.1 384 kbps (Dolby AC3 2.0 192 kbps), английский (аудиодорожка отсутствует в малом числе рипов, указано под спойлером Серии)
    Пояснение к раздаче: Полностью переделал раздачу, перенумеровав файлы по датам их выхода в свет. Раздача существенно пополнилась новыми мультами. Файлы кодировались лишь с Blu-Ray дисков, либо с DVD дисков (кодирование с Blu-Ray помечено под спойлером Сериизначком BD). Не у всех серий есть русские и английские субтитры, это также отмечено под спойлером Серии. Выбирались исходники только с профессиональным многоголосым закадровым переводом.
    Релиз подготовил:
    Серии

    http://multi-up.com/1166020Список серий в текстовом файле, поскольку что-то из списка серий содержатся в запрещённых на Руторе словах/фразах/ссылках

    MediaInfo

    Общее
    Полное имя : 01.Posylnyi.miss.Glori.mkv
    Формат : Matroska
    Версия формата : Version 4/Version 2
    Размер файла : 142 Мбайт
    Продолжительность : 7 м. 41 с.
    Общий поток : 2576 Кбит/сек
    Дата кодирования : UTC 2014-09-14 19: 59: 05
    Программа кодирования : mkvmerge v7.2.0 (;On Every Street;) 64bit built on Sep 13 2014 15: 52: 10
    Библиотека кодирования : libebml v1.3.0 + libmatroska v1.4.1
    DURATION : 00: 07: 41.696000000
    NUMBER_OF_FRAMES : 14428
    NUMBER_OF_BYTES : 22161408
    _STATISTICS_WRITING_APP : mkvmerge v7.2.0 (;On Every Street;) 64bit built on Sep 13 2014 15: 52: 10
    _STATISTICS_WRITING_DATE_UTC : 2014-09-14 19: 59: 05
    _STATISTICS_TAGS : BPS DURATION NUMBER_OF_FRAMES NUMBER_OF_BYTES
    Видео
    Идентификатор : 1
    Формат : AVC
    Формат/Информация : Advanced Video Codec
    Профиль формата : High@L4.1
    Параметр CABAC формата : Да
    Параметр ReFrames формата : 8 кадров
    Идентификатор кодека : V_MPEG4/ISO/AVC
    Продолжительность : 7 м. 41 с.
    Битрейт : 1809 Кбит/сек
    Ширина : 720 пикселей
    Высота : 576 пикселей
    Соотношение сторон : 4: 3
    Режим частоты кадров : Постоянный
    Частота кадров : 25, 000 кадров/сек
    Стандарт вещания : PAL
    Цветовое пространство : YUV
    Субдискретизация насыщенности : 4: 2: 0
    Битовая глубина : 8 бит
    Тип развёртки : Прогрессивная
    Бит/(Пиксели*Кадры) : 0.174
    Размер потока : 96, 7 Мбайт (68%)
    Библиотека кодирования : x264 core 138 r2356 a1d3d17
    Настройки программы : cabac=1/ref=8/deblock=1: -2: -1/analyse=0x3: 0x113/me=umh/subme=10/psy=1/psy_rd=1.00: 0.05/mixed_ref=1/me_range=32/chroma_me=1/trellis=2/8x8dct=1/cqm=0/deadzone=21, 11/fast_pskip=0/chroma_qp_offset=-3/threads=6/lookahead_threads=1/sliced_threads=0/nr=0/decimate=0/interlaced=0/bluray_compat=0/constrained_intra=0/bframes=8/b_pyramid=2/b_adapt=2/b_bias=0/direct=3/weightb=1/open_gop=0/weightp=2/keyint=250/keyint_min=25/scenecut=40/intra_refresh=0/rc=2pass/mbtree=0/bitrate=1809/ratetol=1.0/qcomp=0.60/qpmin=0/qpmax=69/qpstep=4/cplxblur=20.0/qblur=0.5/ip_ratio=1.40/pb_ratio=1.30/aq=1: 1.00
    Язык : English
    Default : Да
    Forced : Нет
    DURATION : 00: 07: 41.920000000
    NUMBER_OF_FRAMES : 11548
    NUMBER_OF_BYTES : 104281660
    _STATISTICS_WRITING_APP : mkvmerge v7.2.0 (;On Every Street;) 64bit built on Sep 13 2014 15: 52: 10
    _STATISTICS_WRITING_DATE_UTC : 2014-09-14 19: 59: 05
    _STATISTICS_TAGS : BPS DURATION NUMBER_OF_FRAMES NUMBER_OF_BYTES
    Аудио #1
    Идентификатор : 2
    Формат : AC-3
    Формат/Информация : Audio Coding 3
    Расширение режима : CM (complete main)
    Параметр Endianness формата : Big
    Идентификатор кодека : A_AC3
    Продолжительность : 7 м. 41 с.
    Вид битрейта : Постоянный
    Битрейт : 384 Кбит/сек
    Каналы : 6 каналов
    Расположение каналов : Front: L C R, Side: L R, LFE
    Частота : 48, 0 КГц
    Битовая глубина : 16 бит
    Метод сжатия : С потерями
    Размер потока : 21, 1 Мбайт (15%)
    Язык : Russian
    Default : Да
    Forced : Нет
    Аудио #2
    Идентификатор : 3
    Формат : AC-3
    Формат/Информация : Audio Coding 3
    Расширение режима : CM (complete main)
    Параметр Endianness формата : Big
    Идентификатор кодека : A_AC3
    Продолжительность : 7 м. 41 с.
    Вид битрейта : Постоянный
    Битрейт : 384 Кбит/сек
    Каналы : 6 каналов
    Расположение каналов : Front: L C R, Side: L R, LFE
    Частота : 48, 0 КГц
    Битовая глубина : 16 бит
    Метод сжатия : С потерями
    Размер потока : 21, 1 Мбайт (15%)
    Язык : English
    Default : Нет
    Forced : Нет

    Скриншоты



    Торрент обновлен 25 августа 2017 года. Раздача полностью изменена, добавлено много серий

    Онлайн видео Веселые мелодии


    Размер скачиваемого торрента: 69.55 GB (74683063889 Bytes)

    Веселые мелодии/Looney Tunes (1931-2011) BDRip (AVC), DVDRip-AVC от New-Team | P
    загрузка...
    Рейтинг →
     (голосов: 1, оценка 5/5, голосовать можно 1 раз )

    Другие торренты по теме:

  • Веселые мелодии: Веселый лед / Looney Tunes: Cracked Ice (1931-1940) DVD5 от New-Team | P | Лицензия
  • Веселые мелодии / Looney Tunes (1936-1966) BDRip 720p от HQ-ViDEO
  • Веселые мелодии / Looney Tunes (1936-1966) BDRip 720p от HQ-ViDEO
  • Веселые мелодии / Looney Tunes (1931-1953) DVDRip от New-Team | P
  • Веселые мелодии / Looney Tunes (1931-1979) DVDRip от New-Team | P
  • Веселые мелодии / Looney Tunes (1931-1979) 11xDVD5, DVD9 New-Team | P


    • Комментарии (0):

      Информация

      Информация

        Посетители, находящиеся в группе Гости, не могут оставлять комментарии в данной новости.

        ↓ Меню



        ↓ Опрос

        А Вы добавили сайт в закладки?
        Да
        Не


        Top 10 за месяц (Мультфильмы)