.
Авторизация | Регистрация
Хочешь лучшие торренты? Добавь свой email!
Добавить
» » Сборник мультфильмов - Союзмультфильм: В гостях у сказки (1948-1952) DVDRip от New-Team скачать торрент бесплатно




    Сборник мультфильмов - Союзмультфильм: В гостях у сказки (1948-1952) DVDRip от New-Team скачать торрент бесплатно

    Опубликовал: Админ | Дата: 25-01-2016, 12:19 | Просмотров: 148



    Снималось в: СССР
    Создали в: Союзмультфильм
    Категория жанра: мультфильм, короткометражка
    Создали в: 1948-1952
    Время просмотра: 05: 01: 07
    Перевод текста: Не требуется
    Субтитры подготовлены: нет
    Оригинальная аудиодорожка: русский
    Главный режиссер: Михаил Цехановский, Фёдор Хитрук, Борис Дежкин...
    Описание: Союзмультфильм— крупнейшая в СССР студия мультипликационных фильмов, основанная в Москве 10 июня 1936 года. Студия создана 10 июня 1936 года с названием — Союздетмультфильм (из объединения мелких коллективов Мосфильма, Совкино и Межрабпромфильма), а с 20 августа 1937 года ее переименовали в Союзмультфильм. Хотя приказ о создании студии был подписан начальником Главного Управления кинофотопромышленности, считается, что решение о создании студии мультипликационных фильмов исходило лично от И. В. Сталина. Для студии были выделены помещения закрытых Советской властью храмов: Николая Чудотворца в Новой слободе на Долгоруковской улице (в советское время — Каляевской улице), где находилось производство рисованных фильмов, и Спаса Преображения что на Песках в Спасопесковском переулке на Арбате, где располагалось Творческое объединение кукольных фильмов. Храм на Арбате в 1991 году был возвращен Русской Православной Церкви, а храм на ул. Долгоруковской не возвращен РПЦ до сих пор, хотя решения о необходимости, в принципе, вернуть Церкви отнятые у неё храмы принимались уже более 15 лет назад. В настоящее время здание на Долгоруковской ул. дом 25 находится в федеральной собственности и закреплено на праве хозяйственного ведения за ФГУП ТПО Киностудия Союзмультфильм.
    Первый мультфильм, выпущенный студией, назывался В Африке жарко (1936 год). С 1937 года начали выпускаться цветные мультфильмы. На студии снято более 1500 мультфильмов.



    Источник: DVD5 R5
    Качество фильма видео: DVDRip
    Тип видео видео: AVI
    Информация о видео: 688x512 (4: 3), 25 fps, XviD ~ 1792 kbps avg, 0.204 bit/pixel
    Информация о звуке: 48 kHz, Dolby Digital AC3 2.0, 192 kbps
    Раздача от:
    Список мультфильмов

    01. Серая Шейка (1948) 0: 19: 20
    02. Волшебный ковер (1948) 0: 34: 21
    03. Слон и муравей (1948) 0: 10: 10
    04. Федя Зайцев (1948) 0: 19: 54
    05. Охотничье ружье (1948) 0: 09: 57
    06. Чемпион (1948) 0: 10: 08
    07. Цветик-Семицветик (1948) 0: 20: 15
    08. Первый урок (1948) 0: 09: 47
    09. Новогодняя ночь (1948) 0: 10: 08
    10. Сказка о солдате (1948) 0: 18: 17
    11. Весенние гости (1949) 0: 11: 18
    12. Гуси-лебеди (1949) 0: 18: 00
    13. Лиса-строитель (1950) 0: 09: 54
    14. Олень и волк (1950) 0: 10: 00
    15. Высокая горка (1951) 0: 19: 26
    16. Таежная сказка (1951) 0: 10: 11
    17. Лесные путешественники (1951) 0: 20: 19
    18. Аленький цветочек (1952) 0: 39: 42


    MediaInfo

    Общее
    Полное имя : Sbornik.multfilmov.1948-1952.DVDRip_New-team_by_AVP_Studio.avi
    Формат : AVI
    Формат/Информация : Audio Video Interleave
    Размер файла : 276 Мбайт
    Продолжительность : 19 м.
    Общий поток : 1994 Кбит/сек
    Программа кодирования : VirtualDubModRus 1.5.10.2 (build 2542/release)
    Библиотека кодирования : VirtualDubMod build 2542/release
    Видео
    Идентификатор : 0
    Формат : MPEG-4 Visual
    Профиль формата : Advanced Simple@L5
    Параметр BVOP формата : 1
    Параметр QPel формата : Нет
    Параметр GMC формата : Без точки перехода
    Параметр матрицы формата : Выборочная
    Идентификатор кодека : XVID
    Идентификатор кодека/Подсказка : XviD
    Продолжительность : 19 м.
    Битрейт : 1792 Кбит/сек
    Ширина : 688 пикселей
    Высота : 512 пикселей
    Соотношение сторон : 4: 3
    Частота кадров : 25, 000 кадров/сек
    Цветовое пространство : YUV
    Субдискретизация насыщенности : 4: 2: 0
    Битовая глубина : 8 бит
    Тип развёртки : Прогрессивная
    Метод сжатия : С потерями
    Бит/(Пиксели*Кадры) : 0.204
    Размер потока : 248 Мбайт (90%)
    Библиотека кодирования : XviD 73
    Аудио
    Идентификатор : 1
    Формат : AC-3
    Формат/Информация : Audio Coding 3
    Расширение режима : CM (complete main)
    Параметр Endianness формата : Big
    Идентификатор кодека : 2000
    Продолжительность : 19 м.
    Вид битрейта : Постоянный
    Битрейт : 192 Кбит/сек
    Каналы : 2 канала
    Расположение каналов : Front: L R
    Частота : 48, 0 КГц
    Битовая глубина : 16 бит
    Метод сжатия : С потерями
    Размер потока : 26, 6 Мбайт (10%)
    Выравнивание : Разделение по промежуткам
    Продолжительность промежутка : 40 мс. (1, 00 видеокадр)
    Время предзагрузки промежутка : 500 мс

    Скриншоты



    Залил: AVPStudio

    Онлайн видео Сборник мультфильмов


    Размер скачиваемого торрента: 4.28 GB (4592664576 Bytes)

    Сборник мультфильмов - Союзмультфильм: В гостях у сказки (1948-1952) DVDRip от New-Team
    загрузка...
    Рейтинг →
     (голосов: 1, оценка 4/5, голосовать можно 1 раз )

    Другие торренты по теме:

  • Колобок. Сборник мультфильмов (1955-1982) DVDRip-AVC | iPad
  • Чебурашка и крокодил Гена. Сборник мультфильмов (1967-1983) BDRip-AVC | iPad
  • Бременские музыканты. Сборник мультфильмов (1967-1981) BDRip-AVC | iPad
  • Трое из Простоквашино Сборник мультфильмов (1977-1981) BDRip 1080p
  • Сборник мультфильмов - Союзмультфильм: Мегаколлекция (1936-2012) DVDRip
  • Котенок по имени Гав. Сборник мультфильмов (1957-1988) BDRip-AVC | iPad
  • Котёнок по имени Гав. Сборник мультфильмов (1957-1988) BDRip-AVC от MediaClub
  • Были и небылицы. Сборник мультфильмов. Выпуск 1-5 (1960-1997) 5xDVD5 от Youtracker | Лицензия


    • Комментарии (0):

      Информация

      Информация

        Посетители, находящиеся в группе Гости, не могут оставлять комментарии в данной новости.

        ↓ Меню



        ↓ Опрос

        А Вы добавили сайт в закладки?
        Да
        Не


        Top 10 за месяц (Мультфильмы)