.
Авторизация | Регистрация
Хочешь лучшие торренты? Добавь свой email!
Добавить
» » Круг / Circle (2015) WEB-DLRip от ALGORITM | L1 скачать торрент бесплатно




    Круг / Circle (2015) WEB-DLRip от ALGORITM | L1 скачать торрент бесплатно

    Опубликовал: Админ | Дата: 8-11-2015, 05:01 | Просмотров: 84




    Год выпуска: 2015
    Страна: США
    Производство: Taggart Productions
    Жанр: ужасы, фантастика, триллер, драма
    Режиссер: Аарон Ханн, Марио Мисионе
    В ролях: Джули Бенц, Картер Дженкинс, Мерси Мэлик, Мэтт Корбой, Лиза Пеликан, Сесар Гарсиа Гомес, Сара Сэндерсон, Кевин Шеридан, Коли Мустафа Спикс, Хорди Виласусо
    Перевод: Любительский (одноголосый, закадровый)
    Озвучка: Павел Морозов aka PashaUp
    Субтитры: Нет
    Описание: Пятьдесят незнакомцев просыпаются в огромной камере, не имея понятия о том, как попали сюда. Собранные в круг и не способные двигаться, они быстро понимают, что каждые две минуты одного из них будет убивать странное устройство в центре комнаты. Вскоре им становится ясно, что жертва выбирается не случайно, а ими самими, что они могут коллективно влиять на выбор, который делает машина. Но как решить, кто заслуживает умереть? И что будет, когда останется лишь один человек?



    Качество: WEB-DLRip (исходник WEB-DL 720p)
    Продолжительность: 01: 26: 26
    Формат: AVI
    Видео кодек: XviD
    Аудио кодек: AC3
    Видео: 688x288 (2.39: 1), 23.976 fps, XviD build 73 ~1004 kbps avg, 0.21 bit/pixel
    Аудио: 48 kHz, AC3 Dolby Digital, 2/0 (L, R) ch, ~192 kbps
    МедиаИнфо
    General
    Complete name : D: Загрузки с трекеровCircle.WEB-DLRip.2015.by.ALGORITM.avi
    Format : AVI
    Format/Info : Audio Video Interleave
    File size : 746 MiB
    Duration : 1h 26mn
    Overall bit rate : 1 206 Kbps
    Writing application : VirtualDubMod 1.5.10.2 (build 2542/release)
    Writing library : VirtualDubMod build 2542/release
    Video
    ID : 0
    Format : MPEG-4 Visual
    Format profile : Advanced Simple@L5
    Format settings, BVOP : 1
    Format settings, QPel : No
    Format settings, GMC : No warppoints
    Format settings, Matrix : Default (MPEG)
    Codec ID : XVID
    Codec ID/Hint : XviD
    Duration : 1h 26mn
    Bit rate : 1 005 Kbps
    Width : 688 pixels
    Height : 288 pixels
    Display aspect ratio : 2.40: 1
    Frame rate : 23.976 fps
    Color space : YUV
    Chroma subsampling : 4: 2: 0
    Bit depth : 8 bits
    Scan type : Progressive
    Compression mode : Lossy
    Bits/(Pixel*Frame) : 0.211
    Stream size : 621 MiB (83%)
    Writing library : XviD 73
    Audio
    ID : 1
    Format : AC-3
    Format/Info : Audio Coding 3
    Mode extension : CM (complete main)
    Format settings, Endianness : Big
    Codec ID : 2000
    Duration : 1h 26mn
    Bit rate mode : Constant
    Bit rate : 192 Kbps
    Channel(s) : 2 channels
    Channel positions : Front: L R
    Sampling rate : 48.0 KHz
    Compression mode : Lossy
    Stream size : 119 MiB (16%)
    Alignment : Split accross interleaves
    Interleave, duration : 42 ms (1.00 video frame)
    Interleave, preload duratio : 500 ms

    Скриншоты

    Размер скачиваемого торрента: 745.77 MB (781998080 Bytes)

    Круг/Circle (2015) WEB-DLRip от ALGORITM | L1
    загрузка...
    Рейтинг →
     (голосов: 1, оценка 4/5, голосовать можно 1 раз )

    Другие торренты по теме:

  • Разомкнутый круг / Разорванный круг / The Broken Circle Breakdown (2012) HDRip-AVC | iPhone скачать через торрент бесплатно
  • Разомкнутый круг / Разорванный круг / The Broken Circle Breakdown / Alabama Monroe (2012) BDRemux 1080p | P, L1
  • Мемуары Шерлокa Холмсa. Красный круг / The Memoirs of Sherlock Holmes.The red circle (1994) IPTVRip от Generalfilm
  • Миссис Паркер и порочный круг / Mrs. Parker and the Vicious Circle (1994) DVDRip-AVC от Temperest
  • Замкнутый круг / Площадь Колумба / Columbus Circle (2012) HDRip-AVC | P
  • OST - Миссис Паркер и порочный круг / Mrs. Parker And The Vicious Circle (1994) MP3
  • Разорванный круг / The Broken Circle Breakdown (2012) HDRip | L1
  • Замкнутый круг / Площадь Колумба / Columbus Circle (2012) HDRip-AVC от potroks | Лицензия скачать через торрент бесплатно


    • Комментарии (0):

      Информация

      Информация

        Посетители, находящиеся в группе Гости, не могут оставлять комментарии в данной новости.

        ↓ Меню



        ↓ Опрос

        А Вы добавили сайт в закладки?
        Да
        Не


        Top 10 за месяц (Фильмы)