.
Авторизация | Регистрация
Хочешь лучшие торренты? Добавь свой email!
Добавить
» » Великая (2015) WEB-DLRip от GeneralFilm скачать торрент бесплатно




    Великая (2015) WEB-DLRip от GeneralFilm скачать торрент бесплатно

    Опубликовал: Админ | Дата: 7-11-2015, 11:41 | Просмотров: 89



    Детально о кино
    Русское название: Великая
    Создали в: 2015
    Категория жанра: Драма, история
    Главный режиссер: Игорь Зайцев

    Актеры
    Юлия Снигирь, Павел Деревянко, Сергей Шакуров, Наталья Суркова, Роман Мадянов, Марк Богатырёв, Светлана Фролова, Ольга Медынич, Павел Трубинер, Виктор Раков, Семён Стругачёв, Станислав Любшин, Виктор Тереля, Дмитрий Ульянов, Рихард Леперс, Илья Носков, Валерий Кухарешин, Владимир Матвеев, Эрнст Романов, Дмитрий Быковский-Ромашов, Иван Батарев, Светлана Смирнова-Кацагаджиева, Михаил Сидаш, Иван Шмаков, Леонид Ворон, Фитц ван Том, Сергей Горобченко

    Сюжет фильма

    15-летняя прусская принцесса София Фредерика прибывает в Россию, чтобы выйти замуж за наследника российского престола Петра III. Перейдя в православную веру, она получает имя Екатерина. Брак не приносит счастья: супруг ненавидит ее. Но императрице Елизавете Петровне нужен наследник, способный править огромной страной, так как капризный и неуравновешенный Петр не подходит на роль Российского Императора. После семи лет тягостного супружества Екатерина рожает сына. Но действующая императрица забирает маленького Павла на воспитание. Разлученная с ребенком и лишенная единственного шанса на женское счастье, Екатерина намерена бороться. Она ищет союзников среди тех, кто не хочет видеть Петра на престоле...

    Снималось в: Россия
    Время просмотра: 12 x ~ 00: 45: 00
    Язык: Русский
    Файл
    Качество фильма: WEB-DLRip
    Тип видео: AVI
    Информация о видео: XviD, 900 Кбит/с, 688x384
    Информация о звуке: MP3, 2 ch, 128 Кбит/с
    МедиаИнфо
    Общее
    Полное имя : Velikaja.(12.serii.iz.12).2014.XviD.WEB-DLRip.by.GeneralFilm?1.serija.avi
    Формат : AVI
    Формат/Информация : Audio Video Interleave
    Размер файла : 372 Мбайт
    Продолжительность : 48 м.
    Общий поток : 1067 Кбит/сек
    Программа кодирования : VirtualDubMod 1.5.10.3 | www.virtualdub-fr.org || (build 2550/release)
    Библиотека кодирования : VirtualDubMod build 2550/release
    Видео
    Идентификатор : 0
    Формат : MPEG-4 Visual
    Профиль формата : Advanced Simple@L5
    Параметр BVOP формата : 1
    Параметр QPel формата : Нет
    Параметр GMC формата : Без точки перехода
    Параметр матрицы формата : Выборочная
    Идентификатор кодека : XVID
    Идентификатор кодека/Подсказка : XviD
    Продолжительность : 48 м.
    Битрейт : 930 Кбит/сек
    Ширина : 688 пикселей
    Высота : 384 пикселя
    Соотношение сторон : 16: 9
    Частота кадров : 25, 000 кадров/сек
    Цветовое пространство : YUV
    Субдискретизация насыщенности : 4: 2: 0
    Битовая глубина : 8 бит
    Тип развёртки : Прогрессивная
    Метод сжатия : С потерями
    Бит/(Пиксели*Кадры) : 0.141
    Размер потока : 324 Мбайт (87%)
    Библиотека кодирования : XviD 73
    Аудио
    Идентификатор : 1
    Формат : MPEG Audio
    Версия формата : Version 1
    Профиль формата : Layer 3
    Идентификатор кодека : 55
    Идентификатор кодека/Подсказка : MP3
    Продолжительность : 48 м.
    Вид битрейта : Постоянный
    Битрейт : 128 Кбит/сек
    Каналы : 2 канала
    Частота : 44, 1 КГц
    Метод сжатия : С потерями
    Размер потока : 44, 6 Мбайт (12%)
    Выравнивание : Разделение по промежуткам
    Продолжительность промежутка : 40 мс. (1, 00 видеокадр)
    Время предзагрузки промежутка : 500 мс.
    Библиотека кодирования : LAME3.99r
    Залил: vsobbol
    Размер скачиваемого торрента: 4.36 GB (4684836864 Bytes)


    Великая (2015) WEB-DLRip от GeneralFilm
    загрузка...
    Рейтинг →
     (голосов: 1, оценка 3/5, голосовать можно 1 раз )

    Другие торренты по теме:

  • Великая стена / The Great Wall (2016) WEB-DLRip-AVC от OlLanDGroup | iTunes
  • Великая стена / The Great Wall (2016) WEB-DLRip-AVC от ExKinoRay | iTunes
  • Великая Тартария - только факты (2014) WEB-DLRip скачать через торрент бесплатно
  • Великая стена / The Great Wall (2016) WEB-DLRip от Scarabey | iTunes


    • Комментарии (0):

      Информация

      Информация

        Посетители, находящиеся в группе Гости, не могут оставлять комментарии в данной новости.

        ↓ Меню



        ↓ Опрос

        А Вы добавили сайт в закладки?
        Да
        Не


        Top 10 за месяц (Фильмы)