.
Авторизация | Регистрация
Хочешь лучшие торренты? Добавь свой email!
Добавить
» » Кто я / Who Am I - Kein System ist sicher (2014) DVD9 от New-Team | Лицензия скачать торрент бесплатно




    Кто я / Who Am I - Kein System ist sicher (2014) DVD9 от New-Team | Лицензия скачать торрент бесплатно

    Опубликовал: Админ | Дата: 7-11-2015, 05:01 | Просмотров: 94



    Детально о кино
    Русское название: Кто я
    Русское название в мировом прокате: Who Am I - Kein System ist sicher
    Создали в: 2014
    Категория жанра: триллер
    Главный режиссер: Баран бо Одар/Baran bo Odar

    Актеры
    Том Шиллинг, Элиас ЭмБарек, Вотан Вильке Мёринг, Антуан Моно мл., Ханна Херцшпрунг, Штефан Кампвирт, Трине Дюрхольм, Леопольд Хорнунг, Катарина Матц, Леонхард Каров

    Сюжет фильма

    Бенджамин — молодой компьютерный гений. С детства он мечтает стать супергероем из комиксов и покорить мир. Но в реальном мире он — Никто. Его жизнь неожиданно меняется, когда он встречает свою полную противоположность — харизматичного парня Макса.
    Не желая жить в жестких рамках системы, они совершают череду дерзких кибер-преступлений. Восстав против равнодушного общества, они становятся кумирами для целого поколения.
    Теперь Бенджамин не просто супергерой, он — самый разыскиваемый хакер в мире. Но что его ждет после погружения в альтернативную реальность? Кто же он на самом деле?…

    Снималось в: Германия
    Киностудия: Deutsche Columbia Pictures Film Produktion, Seven Pictures, Wiedemann Berg Filmproduktion
    Время просмотра: 01: 41: 47
    Перевод текста: Дублированный Лицензия
    Файл
    Кодек для видео: MPEG2
    Качество фильма: DVD9 R5
    Информация о видео: PAL 16: 9 (720x576(0.635)) MPEG Video, 25, 000 кадр/сек, 6585 Кбит/сек
    Информация о звуке: Russian (Dolby AC3, 6 ch) 448 Кбит/сек, 48, 0 КГц
    Субтитры: украинские
    DVDInfo
    Title: F
    Size: 6.03 Gb ( 6 320 844 KBytes ) - DVD-9
    Enabled regions: 1, 2, 3, 4, 5, 6, 7, 8
    VTS_01 :
    Play Length: 01: 41: 47
    Video: PAL 16: 9 (720x576) VBR, Auto PanScan
    Audio:
    English (Dolby AC3, 6 ch)
    Subtitles:
    English
    VTS_02 :
    Play Length: 00: 00: 07
    Video: PAL 16: 9 (720x576) VBR, Auto PanScan
    Audio:
    English (Dolby AC3, 2 ch)
    VTS_03 :
    Play Length: 00: 00: 15
    Video: PAL 4: 3 (720x576) VBR
    Audio:
    English (Dolby AC3, 2 ch)
    VTS_04 :
    Play Length: 00: 02: 05
    Video: PAL 16: 9 (720x576) VBR, Auto PanScan
    Audio:
    English (Dolby AC3, 2 ch)
    VTS_05 :
    Play Length: 00: 02: 28
    Video: PAL 16: 9 (720x576) VBR, Auto PanScan
    Audio:
    English (Dolby AC3, 2 ch)
    VTS_06 :
    Play Length: 00: 01: 50
    Video: PAL 16: 9 (720x576) VBR, Auto PanScan
    Audio:
    English (Dolby AC3, 2 ch)
    VTS_07 :
    Play Length: 00: 02: 22
    Video: PAL 16: 9 (720x576) VBR, Auto PanScan
    Audio:
    English (Dolby AC3, 2 ch)
    VTS_08 :
    Play Length: 00: 01: 29
    Video: PAL 16: 9 (720x576) VBR, Auto PanScan
    Audio:
    English (Dolby AC3, 2 ch)
    VTS_09 :
    Play Length: 00: 01: 39
    Video: PAL 16: 9 (720x576) VBR, Auto PanScan
    Audio:
    English (Dolby AC3, 2 ch)
    VTS_10 :
    Play Length: 00: 02: 22
    Video: PAL 16: 9 (720x576) VBR, Auto PanScan
    Audio:
    English (Dolby AC3, 2 ch)
    VTS_11 :
    Play Length: 00: 02: 18
    Video: PAL 16: 9 (720x576) VBR, Auto PanScan
    Audio:
    English (Dolby AC3, 2 ch)
    VTS_12 :
    Play Length: 00: 01: 26
    Video: PAL 16: 9 (720x576) VBR, Auto PanScan
    Audio:
    English (Dolby AC3, 2 ch)
    VTS_13 :
    Play Length: 00: 03: 10
    Video: PAL 16: 9 (720x576) VBR, Auto PanScan
    Audio:
    English (Dolby AC3, 2 ch)
    Menu Video:
    PAL 4: 3 (720x576) VBR
    Menu Subtitles:
    Not specified
    Menu English Language Unit :
    Root Menu

    MediaInfo
    Общее
    Полное имя : F: Новинки 2015Kto.Ja.2014.D.DVD9VIDEO_TSVTS_01_2.VOB
    Формат : MPEG-PS
    Размер файла : 1024 Мбайт
    Продолжительность : 19 м.
    Режим общего битрейта : Переменный
    Общий поток : 7175 Кбит/сек
    Видео
    Идентификатор : 224 (0xE0)
    Формат : MPEG Video
    Версия формата : Version 2
    Профиль формата : Main@Main
    Параметр BVOP формата : Да
    Параметр матрицы формата : По умолчанию
    Параметр GOP формата : Variable
    Продолжительность : 19 м.
    Вид битрейта : Переменный
    Битрейт : 6585 Кбит/сек
    Максимальный битрейт : 8500 Кбит/сек
    Ширина : 720 пикселей
    Высота : 576 пикселей
    Соотношение сторон : 16: 9
    Частота кадров : 25, 000 кадров/сек
    Стандарт вещания : PAL
    Цветовое пространство : YUV
    Субдискретизация насыщенности : 4: 2: 0
    Битовая глубина : 8 бит
    Тип развёртки : Прогрессивная
    Метод сжатия : С потерями
    Бит/(Пиксели*Кадры) : 0.635
    Временной код первого кадра : 00: 20: 35: 14
    Оригинал временного кода : Group of pictures t_head
    Размер потока : 939 Мбайт (92%)
    Аудио
    Идентификатор : 189 (0xBD)-128 (0x80)
    Формат : AC-3
    Формат/Информация : Audio Coding 3
    Расширение режима : CM (complete main)
    Параметр Endianness формата : Big
    Режим смешивания : DVD-Video
    Продолжительность : 19 м.
    Вид битрейта : Постоянный
    Битрейт : 448 Кбит/сек
    Каналы : 6 каналов
    Расположение каналов : Front: L C R, Side: L R, LFE
    Частота : 48, 0 КГц
    Метод сжатия : С потерями
    Задержка видео : -472 мс.
    Размер потока : 63, 9 Мбайт (6%)
    Текст #1
    Идентификатор : 189 (0xBD)-33 (0x21)
    Формат : RLE
    Формат/Информация : Run-length encoding
    Режим смешивания : DVD-Video
    Задержка видео : 3 с. 580 мс.
    Текст #2
    Идентификатор : 189 (0xBD)-34 (0x22)
    Формат : RLE
    Формат/Информация : Run-length encoding
    Режим смешивания : DVD-Video
    Задержка видео : 3 с. 580 мс.

    Скриншоты меню



    Скриншоты фильма



    Релиз подготовил:
    Залил: voovaz
    Размер скачиваемого торрента: 6.03 GB (6472544256 Bytes)

    Кто я/Who Am I - Kein System ist sicher (2014) DVD9 от New-Team | Лицензия
    загрузка...
    Рейтинг →
     (голосов: 1, оценка 3/5, голосовать можно 1 раз )

    Другие торренты по теме:

  • Кто я / Who Am I - Kein System ist sicher (2014) HDRip-AVC от ExKinoRay | L
  • Кто я / Who Am I - Kein System ist sicher (2014) BDRip-AVC от New-Team | L
  • Кто я / Who Am I - Kein System ist sicher (2014) HDRip | Лицензия
  • Кто я / Who Am I - Kein System ist sicher (2014) BDRip 720p | GER Transfer


    • Комментарии (0):

      Информация

      Информация

        Посетители, находящиеся в группе Гости, не могут оставлять комментарии в данной новости.

        ↓ Меню



        ↓ Опрос

        А Вы добавили сайт в закладки?
        Да
        Не


        Top 10 за месяц (Фильмы)