.
Авторизация | Регистрация
Хочешь лучшие торренты? Добавь свой email!
Добавить
» » Непримиримые противоречия / Irreconcilable Differences (1984) BDRip от New-Team | A скачать торрент бесплатно




    Непримиримые противоречия / Irreconcilable Differences (1984) BDRip от New-Team | A скачать торрент бесплатно

    Опубликовал: Админ | Дата: 6-11-2015, 05:01 | Просмотров: 110


    They;ve Got Everything... including a 10 year old daughter who;s suing them for divorce

    Снималось в: США/Hemdale Films, Lantana, Warner Bros. Pictures
    Категория жанра: драма, мелодрама, комедия
    Создали в: 1984
    Время просмотра: 01: 53: 48
    Перевод текста: Авторский (одноголосый) Антон Алексеев
    Субтитры подготовлены: нет
    Оригинальная аудиодорожка: нет
    Главный режиссер: Чарльз Шайер/Charles Shyer

    Актеры
    Райан О’Нил, Шелли Лонг, Дрю Бэрримор, Сэм Уонамейкер, Аллен Гарфилд, Шэрон Стоун, Ким Марринер, Венди Гордон, Кен Гэйл, Дебора Коуди...
    Описание: Супруги Альберт и Люси собираются развестись и начинают раздел имущества. Это приводит в возмущение их десятилетнюю дочь Кейси, которая вскоре подает на них в суд с целью лишить своих родителей родительских прав.

    Качество фильма: BDRip/BDRemux
    Тип видео: AVI
    Информация о видео: 720x400 (16: 9), XviD 1 442 Кбит/сек/23.976 fps/Бит/(Пиксели*Кадры) : 0.209
    Информация о звуке 1: 48 kHz, Dolby AC3, 1 ch, 192 kbps, русский
    Информация о звуке 2: 48 kHz, Dolby AC3, 1 ch, 192 kbps, английский
    Дополнительно: На оригинальную дорожку наложен чистый голос перевода Антона Алексеева.
    Раздача от:
    MediaInfo

    General
    Format : AVI
    Format/Info : Audio Video Interleave
    File size : 1.46 GiB
    Duration : 1h 53mn
    Overall bit rate : 1 840 Kbps
    Writing application : VirtualDubMod 1.5.10.3 (build 2550/release)
    Writing library : VirtualDubMod build 2550/release
    Video
    ID : 0
    Format : MPEG-4 Visual
    Format profile : Advanced Simple@L5
    Format settings, BVOP : 1
    Format settings, QPel : No
    Format settings, GMC : No warppoints
    Format settings, Matrix : Custom
    Codec ID : XVID
    Codec ID/Hint : XviD
    Duration : 1h 53mn
    Bit rate : 1 442 Kbps
    Width : 720 pixels
    Height : 400 pixels
    Display aspect ratio : 16: 9
    Frame rate : 23.976 fps
    Color space : YUV
    Chroma subsampling : 4: 2: 0
    Bit depth : 8 bits
    Scan type : Progressive
    Compression mode : Lossy
    Bits/(Pixel*Frame) : 0.209
    Stream size : 1.15 GiB (78%)
    Writing library : XviD 73
    Audio #1
    ID : 1
    Format : AC-3
    Format/Info : Audio Coding 3
    Mode extension : CM (complete main)
    Format settings, Endianness : Big
    Codec ID : 2000
    Duration : 1h 53mn
    Bit rate mode : Constant
    Bit rate : 192 Kbps
    Channel(s) : 1 channel
    Channel positions : Front: C
    Sampling rate : 48.0 KHz
    Compression mode : Lossy
    Stream size : 156 MiB (10%)
    Alignment : Split accross interleaves
    Interleave, duration : 42 ms (1.00 video frame)
    Interleave, preload duratio : 500 ms
    Audio #2
    ID : 2
    Format : AC-3
    Format/Info : Audio Coding 3
    Mode extension : CM (complete main)
    Format settings, Endianness : Big
    Codec ID : 2000
    Duration : 1h 53mn
    Bit rate mode : Constant
    Bit rate : 192 Kbps
    Channel(s) : 1 channel
    Channel positions : Front: C
    Sampling rate : 48.0 KHz
    Compression mode : Lossy
    Stream size : 156 MiB (10%)
    Alignment : Split accross interleaves
    Interleave, duration : 42 ms (1.00 video frame)
    Interleave, preload duratio : 500 ms

    Скриншоты:




    Онлайн видео Непримиримые противоречия


    Размер скачиваемого торрента: 1.46 GB (1570525184 Bytes)

    Непримиримые противоречия/Irreconcilable Differences (1984) BDRip от New-Team | A
    загрузка...
    Рейтинг →
     (голосов: 1, оценка 3/5, голосовать можно 1 раз )

    Другие торренты по теме:

  • Непримиримые противоречия / Irreconcilable Differences (1984) BDRip-AVC | A
  • Непримиримые противоречия / Irreconcilable Differences (1984) BDRip от New-Team | A
  • Непримиримые противоречия / Irreconcilable Differences (1984) BDRip 1080p от New-Team | A
  • Непримиримые противоречия / Irreconcilable Differences (1984) BDRip 1080p от New-Team | A
  • Непримиримые противоречия / Irreconcilable Differences (1984) BDRip от New-Team | A
  • Непримиримые противоречия / Irreconcilable Differences (1984) BDRip 720p от New-Team | A


    • Комментарии (0):

      Информация

      Информация

        Посетители, находящиеся в группе Гости, не могут оставлять комментарии в данной новости.

        ↓ Меню



        ↓ Опрос

        А Вы добавили сайт в закладки?
        Да
        Не


        Top 10 за месяц (Фильмы)