.
Авторизация | Регистрация
Хочешь лучшие торренты? Добавь свой email!
Добавить
» » Перезагрузка / Re-Kill (2015) WEB-DL 720p | L2 скачать торрент бесплатно




    Перезагрузка / Re-Kill (2015) WEB-DL 720p | L2 скачать торрент бесплатно

    Опубликовал: Админ | Дата: 5-11-2015, 05:01 | Просмотров: 189



    Детально о кино
    Русское название: Перезагрузка
    Русское название в мировом прокате: Re-Kill
    Создали в: 2015
    Категория жанра: ужасы, фантастика, боевик
    Главный режиссер: Валерий Милев

    Актеры
    Роджер Р. Кросс, Скотт Эдкинс, Даниэлла Алонсо, Брюс Пэйн, Ё Сантависак, Лэйки Андерсон, Роки Маршалл, Марк Адамс, Джиллиан Басерсон, Роб Болтин

    Сюжет фильма
    Страшная эпидемия, приводящая к мутации человека в зомби, поразила человечество и поставила его на грань выживания. Спустя пять лет люди справились с этой угрозой. Спецподразделение R занимается поиском и уничтожением оставшихся мутантов. Однако, в одной из поисковых операций бойцы наталкиваются на доселе неизвестный вид, который приспособился к борьбе с человеком и научился побеждать…


    Снималось в: США/AfterDark Films, Midsummer Films, Signature Pictures
    Время просмотра: 01: 27: 41
    Тип перевода: Любительское (двухголосое) Ох! Студия и Ворон
    Файл
    Тип видео: MKV
    Качество фильма: WEB-DL 720p
    Информация о видео: MPEG-4 AVC, 3936 kb/s, 1280x718
    Информация о звуке: Russsian: AC3, 192 kb/s (2 ch)/English: AC3, 384 kb/s (6 ch)
    MI

    Format : Matroska
    Format version : Version 4/Version 2
    File size : 2.82 GiB
    Duration : 1h 27mn
    Overall bit rate : 4 604 Kbps
    Encoded date : UTC 2015-11-04 19: 11: 50
    Writing application : mkvmerge v6.9.1 (;Blue Panther;) 64bit built on Apr 18 2014 18: 23: 38
    Writing library : libebml v1.3.0 + libmatroska v1.4.1
    Video
    ID : 1
    Format : AVC
    Format/Info : Advanced Video Codec
    Format profile : High@L3.1
    Format settings, CABAC : No
    Format settings, ReFrames : 2 frames
    Codec ID : V_MPEG4/ISO/AVC
    Duration : 1h 27mn
    Bit rate : 3 936 Kbps
    Width : 1 280 pixels
    Height : 718 pixels
    Display aspect ratio : 16: 9
    Frame rate mode : Constant
    Frame rate : 23.976 fps
    Color space : YUV
    Chroma subsampling : 4: 2: 0
    Bit depth : 8 bits
    Scan type : Progressive
    Bits/(Pixel*Frame) : 0.179
    Stream size : 2.41 GiB (85%)
    Language : English
    Default : Yes
    Forced : No
    Color range : Limited
    Color primaries : BT.709
    Transfer characteristics : BT.709
    Matrix coefficients : BT.709
    Audio #1
    ID : 2
    Format : AC-3
    Format/Info : Audio Coding 3
    Mode extension : CM (complete main)
    Format settings, Endianness : Big
    Codec ID : A_AC3
    Duration : 1h 27mn
    Bit rate mode : Constant
    Bit rate : 192 Kbps
    Channel(s) : 2 channels
    Channel positions : Front: L R
    Sampling rate : 48.0 KHz
    Bit depth : 16 bits
    Compression mode : Lossy
    Stream size : 120 MiB (4%)
    Title : Voron
    Language : Russian
    Default : Yes
    Forced : No
    Audio #2
    ID : 3
    Format : AC-3
    Format/Info : Audio Coding 3
    Mode extension : CM (complete main)
    Format settings, Endianness : Big
    Codec ID : A_AC3
    Duration : 1h 27mn
    Bit rate mode : Constant
    Bit rate : 384 Kbps
    Channel(s) : 6 channels
    Channel positions : Front: L C R, Side: L R, LFE
    Sampling rate : 48.0 KHz
    Bit depth : 16 bits
    Compression mode : Lossy
    Stream size : 241 MiB (8%)
    Title : original
    Language : English
    Default : No
    Forced : No
    Menu
    00: 00: 00.000 : en: Chapter_01
    00: 10: 26.000 : en: Chapter_02
    00: 21: 21.000 : en: Chapter_03
    00: 30: 37.000 : en: Chapter_04
    00: 40: 23.000 : en: Chapter_05
    00: 50: 41.000 : en: Chapter_06
    01: 01: 47.000 : en: Chapter_07
    01: 10: 49.000 : en: Chapter_08
    01: 22: 00.000 : en: Chapter_09
    Скриншоты





    Онлайн видео Перезагрузка


    Размер скачиваемого торрента: 2.82 GB (3028220945 Bytes)

    Перезагрузка/Re-Kill (2015) WEB-DL 720p | L2
    загрузка...
    Рейтинг →
     (голосов: 1, оценка 4/5, голосовать можно 1 раз )

    Другие торренты по теме:

  • Петька и Василий Иванович 3: Возвращение Аляски. Перезагрузка / Red Comrades 3: Return of Alaska. Reloaded (2017) PC | Лицензия
  • Петька и Василий Иванович 3: Возвращение Аляски. Перезагрузка / Red Comrades 3: Return of Alaska. Reloaded (2017) PC | Repack от Other s
  • Матрица: Перезагрузка / The Matrix Reloaded (2003) BDRip от Torrent-Xzona | КПК | Лицензия
  • Lind Erebros, Nikinit, Theo, Vikont, Wen, Ёжик - Космические Рейнджеры 2: Перезагрузка (2013) MP3
  • Перезагрузка / Reboot (2012) WEB-DLRip от NovaLan
  • 12 раундов: Перезагрузка / 12 Rounds: Reloaded (2013) BDRip 720p | L1
  • Премия МУЗ-ТВ. Перезагрузка (2013) SATRip от Mydimka
  • Премия МУЗ-ТВ. Перезагрузка (2013) DVB от Mydimka


    • Комментарии (0):

      Информация

      Информация

        Посетители, находящиеся в группе Гости, не могут оставлять комментарии в данной новости.

        ↓ Меню



        ↓ Опрос

        А Вы добавили сайт в закладки?
        Да
        Не


        Top 10 за месяц (Фильмы)