.
Авторизация | Регистрация
Хочешь лучшие торренты? Добавь свой email!
Добавить
» » Мистер Холмс / Mr. Holmes (2015) BDRip от ALGORITM | L скачать торрент бесплатно




    Мистер Холмс / Mr. Holmes (2015) BDRip от ALGORITM | L скачать торрент бесплатно

    Опубликовал: Админ | Дата: 5-11-2015, 05:01 | Просмотров: 131




    Год выпуска: 2015
    Страна: Великобритания, США
    Производство: AI-Film
    Жанр: драма, детектив
    Режиссер: Билл Кондон
    В ролях: Иэн МакКеллен, Лора Линни, Майло Паркер, Хироюки Санада, Хэтти Морахэн, Патрик Кеннеди, Роджер Аллам, Филип Дэвис, Фрэнсис де ла Тур, Чарльз Мэддокс, Такако Акаши, Джон Сешнс
    Перевод: Любительский (многоголосый, закадровый)
    Озвучка: Студия Paradox Omskbird records
    Субтитры: Нет
    Описание: Действие развернется в 1947 году, а речь в фильме пойдет об отошедшем от дел Шерлоке Холмсе, живущем в сонной деревушке в Сассексе вместе с горничной миссис Манро и сыном, который занимается сыском в качестве хобби. Несмотря на уединенный образ жизни, знаменитому сыщику с Бейкер-стрит по-прежнему не дает покоя тайна так и нераскрытого 30 лет назад дела.



    Качество: BDRip (исходник BDRemux 1080p)
    Продолжительность: 01: 43: 44
    Формат: AVI
    Видео кодек: XviD
    Аудио кодек: MP3
    Видео: 688x288 (2.39: 1), 23.976 fps, XviD build 73 ~869 kbps avg, 0.18 bit/pixel
    Аудио: 48 kHz, MPEG Layer 3, 2 ch, ~128.00 kbps avg
    премьера (мир): 8 февраля 2015
    премьера (РФ): 25 февраля 2016, Вольга
    МедиаИнфо
    General
    Complete name : D: Загрузки с трекеровMr. Holmes.BDRip.2015.by.ALGORITM.avi
    Format : AVI
    Format/Info : Audio Video Interleave
    File size : 747 MiB
    Duration : 1h 43mn
    Overall bit rate : 1 007 Kbps
    Writing application : VirtualDubMod 1.5.10.2 (build 2542/release)
    Writing library : VirtualDubMod build 2542/release
    Video
    ID : 0
    Format : MPEG-4 Visual
    Format profile : Advanced Simple@L5
    Format settings, BVOP : 2
    Format settings, QPel : No
    Format settings, GMC : No warppoints
    Format settings, Matrix : Custom
    Codec ID : XVID
    Codec ID/Hint : XviD
    Duration : 1h 43mn
    Bit rate : 870 Kbps
    Width : 688 pixels
    Height : 288 pixels
    Display aspect ratio : 2.40: 1
    Frame rate : 23.976 fps
    Color space : YUV
    Chroma subsampling : 4: 2: 0
    Bit depth : 8 bits
    Scan type : Progressive
    Compression mode : Lossy
    Bits/(Pixel*Frame) : 0.183
    Stream size : 646 MiB (86%)
    Writing library : XviD 73
    Audio
    ID : 1
    Format : MPEG Audio
    Format version : Version 1
    Format profile : Layer 3
    Codec ID : 55
    Codec ID/Hint : MP3
    Duration : 1h 43mn
    Bit rate mode : Constant
    Bit rate : 128 Kbps
    Channel(s) : 2 channels
    Sampling rate : 48.0 KHz
    Compression mode : Lossy
    Stream size : 95.0 MiB (13%)
    Alignment : Aligned on interleaves
    Interleave, duration : 42 ms (1.00 video frame)
    Interleave, preload duratio : 504 ms
    Writing library : LAME3.99r
    Encoding settings : -m s -V 4 -q 0 -lowpass 17 -b 128

    Скриншоты


    Онлайн видео Мистер Холмс


    Размер скачиваемого торрента: 747.47 MB (783777792 Bytes)

    Мистер Холмс/Mr. Holmes (2015) BDRip от ALGORITM | L
    загрузка...
    Рейтинг →
     (голосов: 1, оценка 4/5, голосовать можно 1 раз )

    Другие торренты по теме:

  • Мистер Холмс / Mr. Holmes (2015) HDRip от torrentfilm | L1
  • Мистер Холмс / Mr. Holmes (2015) ВDRip 1080р от HDReactor | L1
  • Мистер Холмс / Mr. Holmes (2015) HDRip от Scarabey | L
  • Мистер Холмс / Mr. Holmes / 2015 / ПМ, СТ / BDRip
  • Мистер Холмс (2016) качество BDRip


    • Комментарии (0):

      Информация

      Информация

        Посетители, находящиеся в группе Гости, не могут оставлять комментарии в данной новости.

        ↓ Меню



        ↓ Опрос

        А Вы добавили сайт в закладки?
        Да
        Не


        Top 10 за месяц (Фильмы)